<?xml  version="1.0" encoding="UTF-8"?>
<!DOCTYPE svg PUBLIC "-//W3C//DTD SVG 1.0//EN" "http://www.w3.org/TR/2001/REC-SVG-20010904/DTD/svg10.dtd" >
<svg xmlns="http://www.w3.org/2000/svg" >
<metadata>
<version>1.0</version>
<id><![CDATA[Georgia Pro W02 SemiBold It]]></id>
<vendor>Monotype Imaging Inc.</vendor>
<credits>
<name>Fonts.com WebFonts</name>
<URL>http://webfonts.fonts.com</URL>
<role>Home of the Web fonts</role>
</credits>
<license>
<URL>http://webfonts.fonts.com/Legal</URL>
</license>
<copyright><![CDATA[© 2011 Microsoft Corporation. All Rights Reserved.]]></copyright>
<trademark><![CDATA[Georgia is a trademark of Microsoft Corporation.]]></trademark>
<licensee>
<name></name>
</licensee>
</metadata>
<defs >
<font horiz-adv-x="1243" id="61f149ff-1e88-4f38-b374-8ed5ae3c0f74">
<font-face font-family="" panose-1="2 4 7 2 5 4 5 9 3 3" ascent="1868" descent="-444" units-per-em="2048" alphabetic="0">
</font-face>
<missing-glyph horiz-adv-x="0" />

<glyph unicode="&#xA;" />
<glyph unicode="&#xD;" horiz-adv-x="0" />
<glyph unicode=" " horiz-adv-x="506" />
<glyph unicode="!" horiz-adv-x="723" d="M393 446H315L339 777L358 1085Q368 1233 392 1305T462 1412T582 1446Q644 1446 678 1415T713 1337Q713 1288 686 1212T611 1017Q492 720 393 446ZM459 135Q459 69 410 22T295 -25Q226 -25 178 22T129 135Q129 200 178 248T295 297Q361 297 410 249T459 135Z"  />
<glyph unicode="&quot;" horiz-adv-x="944" d="M582 1423Q582 1380 549 1307L515 1233Q416 1027 362 895H293Q293 1022 301 1307Q304 1430 344 1480T465 1530Q522 1530 552 1499T582 1423ZM1018 1423Q1018 1379 985 1307L951 1233Q859 1042 799 895H729Q729 1022 737 1307Q740 1430 780 1480T901 1530Q958 1530 988 1499T1018 1423Z"  />
<glyph unicode="#" horiz-adv-x="1378" d="M1008 745L909 492H1176L1163 350H856L721 0H590L725 350H502L369 0H238L373 350H162L176 492H426L524 745H256Q265 851 270 887H578L713 1239H844L707 887H932L1067 1239H1196L1061 887H1272L1257 745H1008ZM651 748L553 489H780L881 748H651Z"  />
<glyph unicode="$" horiz-adv-x="1280" d="M760 1221Q613 1214 537 1151T461 987Q461 907 510 860T662 788L760 1221ZM915 322Q915 487 698 532L590 59Q742 65 828 135T915 322ZM608 549Q466 587 392 630T279 733T240 874Q240 986 309 1083T501 1237T776 1300L827 1524H924L870 1300Q1043 1287 1137 1219T1231 1040Q1231 978 1192 932T1098 885Q1038 885 1003 914T967 993Q967 1065 1010 1159Q969 1191 950 1200T908 1215T854 1223L752 772Q945 729 1042 642T1139 432Q1139 308 1067 209T865 50T573 -18L512 -299H416L481 -18Q305 -14 191 67T76 272Q76 346 118 394T223 442Q286 442 320 411T354 330Q354 303 346 271T301 150Q361 68 498 59L608 549Z"  />
<glyph unicode="%" horiz-adv-x="1737" d="M934 1157Q934 1036 876 933T716 772T496 713Q354 713 270 792T186 1008Q186 1127 244 1231T404 1395T625 1456Q766 1456 850 1375T934 1157ZM254 0H104L1559 1425H1710L254 0ZM1624 412Q1624 290 1567 187T1408 25T1188 -33Q1042 -33 960 48T877 264Q877 384 935 487T1096 651T1317 711Q1459 711 1541 630T1624 412ZM725 1206Q725 1386 612 1386Q517 1386 457 1263T397 956Q397 878 423 829T510 780Q602 780 663 903T725 1206ZM1415 461Q1415 542 1389 591T1303 641Q1209 641 1148 520T1087 211Q1087 132 1114 85T1202 37Q1292 37 1353 159T1415 461Z"  />
<glyph unicode="&amp;" horiz-adv-x="1544" d="M928 0Q856 109 825 164Q692 55 588 10T377 -35Q214 -35 115 51T16 279Q16 434 122 553T463 778Q409 875 388 935T367 1063Q367 1174 424 1263T584 1403T807 1454Q940 1454 1020 1390T1100 1221Q1100 1101 1017 1007T737 815Q816 668 985 393Q1069 483 1139 597T1210 756Q1210 782 1168 798T1053 829L1069 899H1616L1599 829Q1544 824 1497 814T1419 785T1359 739T1229 575Q1114 422 1026 332Q1069 267 1103 224T1168 152T1230 108T1296 85T1430 70L1413 0H928ZM954 1214Q954 1286 917 1326T811 1366Q726 1366 670 1305T614 1155Q614 1093 637 1029T705 877Q954 1006 954 1214ZM786 223Q585 549 496 717Q393 651 343 562T293 369Q293 256 357 188T532 119Q603 119 663 145T786 223Z"  />
<glyph unicode="&apos;" horiz-adv-x="496" d="M582 1423Q582 1380 549 1307L515 1233Q416 1027 362 895H293Q293 1022 301 1307Q304 1430 344 1480T465 1530Q522 1530 552 1499T582 1423Z"  />
<glyph unicode="(" horiz-adv-x="842" d="M604 -328Q365 -297 232 -125T98 317Q98 626 213 891T538 1329T987 1532L971 1446Q803 1417 663 1245T438 796T354 227Q354 15 422 -103T623 -246L604 -328Z"  />
<glyph unicode=")" horiz-adv-x="842" d="M780 887Q780 569 664 306T339 -128T-109 -328L-90 -244Q81 -213 221 -39T442 410T524 975Q524 1184 457 1305T258 1450L274 1532Q514 1499 647 1329T780 887Z"  />
<glyph unicode="*" horiz-adv-x="977" d="M1022 1092Q1022 1050 999 1031T940 1012Q926 1012 900 1019Q741 1057 659 1067Q703 1008 740 969T803 901T845 850T860 803Q860 774 834 752T776 729Q720 729 696 811Q652 959 616 1044Q586 975 538 811Q514 729 455 729Q426 729 400 751T373 803Q373 827 388 849T430 901T494 969T575 1067Q493 1057 335 1019Q308 1012 293 1012Q258 1012 235 1031T211 1092Q211 1129 234 1149T293 1169Q308 1169 335 1163Q506 1124 575 1116Q531 1174 494 1213T430 1282T388 1333T373 1380Q373 1409 399 1431T455 1454Q513 1454 538 1373Q588 1207 616 1141Q651 1223 696 1373Q721 1454 776 1454Q807 1454 833 1432T860 1380Q860 1355 845 1333T804 1282T740 1214T659 1116Q717 1123 837 1149Q928 1169 940 1169Q975 1169 998 1149T1022 1092Z"  />
<glyph unicode="+" horiz-adv-x="1378" d="M774 496V33H629V496H166V639H629V1100H774V639H1235V496H774Z"  />
<glyph unicode="&#x2c;" horiz-adv-x="612" d="M463 115Q463 -24 351 -158T59 -373L27 -303Q269 -184 324 0H270Q121 0 121 125Q121 194 172 244T297 295Q383 295 423 246T463 115Z"  />
<glyph unicode="-" horiz-adv-x="770" d="M72 451L115 637H715L674 451H72Z"  />
<glyph unicode="." horiz-adv-x="612" d="M451 139Q451 72 402 24T285 -25Q214 -25 166 24T117 139Q117 208 166 257T285 307Q352 307 401 258T451 139Z"  />
<glyph unicode="/" horiz-adv-x="963" d="M29 -424H-133L899 1524H1061L29 -424Z"  />
<glyph unicode="0" horiz-adv-x="1264" d="M780 1444Q994 1444 1110 1312T1227 932Q1227 668 1136 445T883 95T524 -31Q312 -31 197 102T82 481Q82 746 173 970T424 1319T780 1444ZM532 47Q639 47 732 184T883 563T942 1059Q942 1229 902 1297T776 1366Q670 1366 577 1228T425 849T367 354Q367 184 406 116T532 47Z"  />
<glyph unicode="1" horiz-adv-x="1264" d="M645 1212H352L373 1298H483Q554 1298 614 1314T726 1358T850 1448H979Q943 1328 899 1141L684 207L678 166Q678 123 732 101T936 70L920 0H72L88 70Q255 73 323 102T406 193L645 1212Z"  />
<glyph unicode="2" horiz-adv-x="1264" d="M721 1446Q933 1446 1051 1351T1169 1092Q1169 982 1132 905T1011 760T735 594Q480 461 364 384T209 242H1057L997 0H-20L16 188Q87 280 194 368T508 592Q665 693 736 765T840 918T874 1108Q874 1232 822 1296T680 1360Q615 1360 567 1342T492 1298Q514 1213 514 1159Q514 1074 470 1033T352 991Q295 991 258 1025T221 1118Q221 1202 289 1278T475 1400T721 1446Z"  />
<glyph unicode="3" horiz-adv-x="1264" d="M1190 1157Q1190 1022 1082 918T786 770L780 754Q928 746 1015 671T1102 475Q1102 334 1014 219T769 37T432 -29Q243 -29 129 49T14 256Q14 325 55 368T166 412Q228 412 267 378T307 289Q307 237 272 153L256 115Q295 82 340 69T442 55Q537 55 620 111T753 269T803 502Q803 688 586 688H455L481 803H569Q719 803 808 904T897 1178Q897 1360 717 1360Q615 1360 524 1294Q530 1267 538 1235T547 1163Q547 1080 503 1036T379 991Q323 991 289 1024T254 1118Q254 1197 325 1274T520 1398T784 1446Q919 1446 1008 1410T1143 1309T1190 1157Z"  />
<glyph unicode="4" horiz-adv-x="1264" d="M956 387L868 0H604L692 387H41L86 575L981 1438H1202L1001 575H1214L1169 387H956ZM885 1200L229 575H737L885 1200Z"  />
<glyph unicode="5" horiz-adv-x="1264" d="M446 -25Q331 -25 231 11T74 109T16 244Q16 316 60 361T172 406Q234 406 271 372T309 285Q309 237 292 192T258 109Q288 86 340 74T449 61Q539 61 625 124T763 296T815 532Q815 649 753 721T580 793Q417 793 270 657L201 684L449 1417H1253L1194 1171H479L356 809Q514 907 686 907Q881 907 994 810T1108 543Q1108 384 1021 254T780 49T446 -25Z"  />
<glyph unicode="6" horiz-adv-x="1264" d="M1167 551Q1167 393 1083 256T856 42T546 -35Q336 -35 215 89T93 426Q93 682 223 904T591 1273T1124 1456L1126 1360L1025 1346Q597 1230 440 774Q526 843 618 876T823 909Q969 909 1068 809T1167 551ZM876 535Q876 647 822 716T675 786Q529 786 417 668Q401 620 388 530T374 356Q374 207 424 126T564 45Q647 45 719 110T834 290T876 535Z"  />
<glyph unicode="7" horiz-adv-x="1264" d="M284 -18H137L1108 1182H602Q530 1182 479 1179T389 1154T317 1086T252 954H182L284 1417H1353L1333 1305L284 -18Z"  />
<glyph unicode="8" horiz-adv-x="1264" d="M1232 1153Q1232 1033 1146 932T880 768Q1156 647 1156 440Q1156 310 1071 200T836 26T505 -37Q294 -37 166 55T38 295Q38 595 440 709Q330 771 279 852T227 1022Q227 1139 306 1240T522 1400T816 1458Q1002 1458 1117 1374T1232 1153ZM970 1167Q970 1264 921 1321T784 1378Q665 1378 583 1297T501 1096Q501 1040 527 998T607 916T816 803Q881 858 925 963T970 1167ZM880 352Q880 409 854 451T778 528T660 598T503 674Q410 613 358 511T306 297Q306 181 372 112T548 43Q694 43 787 130T880 352Z"  />
<glyph unicode="9" horiz-adv-x="1264" d="M1194 991Q1194 730 1063 507T694 143T158 -35L154 62L256 76Q476 135 621 270T848 633Q753 562 664 532T465 502Q316 502 219 605T121 868Q121 1020 204 1155T432 1368T741 1446Q946 1446 1070 1323T1194 991ZM915 1063Q915 1199 865 1282T727 1366Q639 1366 567 1299T455 1118T414 877Q414 764 467 695T610 625Q760 625 872 739Q915 877 915 1063Z"  />
<glyph unicode=":" horiz-adv-x="768" d="M643 825Q643 758 594 709T475 659Q404 659 356 708T307 825Q307 892 356 941T475 991Q544 991 593 942T643 825ZM489 139Q489 72 440 24T324 -25Q253 -25 205 23T156 139Q156 210 205 258T324 307Q390 307 439 259T489 139Z"  />
<glyph unicode=";" horiz-adv-x="768" d="M643 825Q643 758 594 709T475 659Q404 659 356 708T307 825Q307 892 356 941T475 991Q544 991 593 942T643 825ZM502 115Q502 -24 390 -158T98 -373L68 -303Q311 -181 365 0H311Q236 0 197 32T158 125Q158 192 209 243T336 295Q422 295 462 246T502 115Z"  />
<glyph unicode="&lt;" horiz-adv-x="1378" d="M223 504V631L1186 1120V958L410 567L1186 176V14L223 504Z"  />
<glyph unicode="=" horiz-adv-x="1378" d="M193 693V836H1233V693H193ZM193 299V442H1233V299H193Z"  />
<glyph unicode="&gt;" horiz-adv-x="1378" d="M238 14V176L1016 567L238 958V1120L1200 631V504L238 14Z"  />
<glyph unicode="?" horiz-adv-x="1051" d="M1079 1106Q1079 890 921 748T492 578L453 403H362L440 788Q640 805 744 900T848 1157Q848 1262 794 1317T645 1372Q569 1372 506 1329Q519 1254 519 1212Q519 1134 477 1095T358 1055Q300 1055 269 1089T238 1174Q238 1245 297 1310T458 1414T676 1452Q856 1452 967 1357T1079 1106ZM530 135Q530 68 481 22T365 -25Q296 -25 249 21T201 135Q201 201 249 249T365 297Q432 297 481 250T530 135Z"  />
<glyph unicode="@" horiz-adv-x="1942" d="M1806 717Q1806 556 1744 419T1570 203T1323 125Q1225 125 1160 165T1081 272H1075Q1027 209 971 169T840 129Q726 129 660 202T594 408Q594 531 667 668T851 884T1083 963Q1211 963 1239 852H1243L1280 950H1485L1288 403Q1282 387 1276 351T1270 295Q1270 201 1352 201Q1455 201 1537 267T1663 454T1708 727Q1708 890 1635 1016T1426 1212T1106 1282Q907 1282 731 1177T459 892T362 492Q362 267 445 103T680 -147T1036 -233Q1204 -233 1330 -189T1559 -63L1593 -121Q1479 -218 1335 -268T1030 -319Q793 -319 595 -215T291 67T186 477Q186 715 307 924T641 1253T1116 1372Q1321 1372 1477 1293T1719 1061T1806 717ZM1208 750Q1199 816 1173 853T1087 891Q1019 891 955 817T852 620T813 387Q813 229 897 229Q944 229 983 255T1075 360L1208 750Z"  />
<glyph unicode="A" horiz-adv-x="1462" d="M1397 0H727L743 70Q950 87 950 139L944 199L899 485H406Q335 373 282 269T229 147Q229 115 283 94T418 70L403 0H-166L-152 70Q-57 74 10 116T133 246Q174 309 216 375T889 1440H1028L1229 209Q1251 80 1411 70L1397 0ZM795 1108L463 573H883L795 1108Z"  />
<glyph unicode="B" horiz-adv-x="1446" d="M1094 1149Q1094 1241 1035 1290T866 1339L750 1335L625 791H721Q893 791 993 888T1094 1149ZM1022 475Q1022 587 948 648T737 709L604 705L498 240Q489 206 485 172Q485 129 536 104T666 78Q768 78 848 130T975 275T1022 475ZM979 1419Q1191 1419 1301 1354T1411 1163Q1411 1019 1302 918T975 768V754Q1149 732 1245 652T1341 449Q1341 239 1166 120T692 0H-41L-25 70Q69 70 128 97T203 190L442 1239Q442 1279 402 1309T272 1350L289 1419H979Z"  />
<glyph unicode="C" horiz-adv-x="1389" d="M1337 356Q1104 -35 676 -35Q506 -35 372 37T165 241T92 543Q92 784 207 995T521 1330T954 1454Q1061 1454 1170 1429T1350 1358L1415 1419H1499L1389 907H1305Q1282 1147 1194 1257T954 1368Q807 1368 684 1263T484 961T408 537Q408 328 508 207T778 86Q915 86 1034 162T1264 401L1337 356Z"  />
<glyph unicode="D" horiz-adv-x="1620" d="M1599 866Q1599 617 1477 421T1131 113T637 0H-41L-27 70Q70 70 128 94T203 188L434 1196L442 1245Q442 1289 400 1313T272 1350L289 1419H952Q1140 1419 1293 1349T1523 1155T1599 866ZM1284 889Q1284 1100 1180 1218T889 1337L750 1333L500 250Q492 207 492 190Q492 132 538 107T688 82Q856 82 990 182T1204 474T1284 889Z"  />
<glyph unicode="E" horiz-adv-x="1407" d="M1372 1067H1298Q1287 1166 1242 1242T1133 1329Q1075 1339 963 1339H752L623 776H770Q849 776 901 798T998 880T1071 1016H1147L1014 442H940V492Q940 554 927 603T870 673T752 694H602L508 281Q492 219 492 174Q492 119 530 101T696 82Q830 82 888 90T979 112T1060 178T1171 309T1257 430H1329L1202 0H-45L-31 70Q66 70 126 95T203 190L436 1202Q442 1230 442 1249Q442 1288 397 1314T264 1350L281 1419H1454L1372 1067Z"  />
<glyph unicode="F" horiz-adv-x="1300" d="M1391 1053H1315Q1312 1110 1289 1174T1230 1281T1153 1329Q1083 1339 983 1339H752L618 768H772Q857 768 914 795T1016 887T1079 1010H1155Q1048 549 1022 432H946L948 479Q948 540 935 588T880 661T754 686H600L492 209Q485 188 485 166Q485 123 520 102T664 70L647 0H-45L-29 70Q78 70 133 98T203 188L436 1202Q442 1233 442 1249Q442 1288 402 1311T264 1350L281 1419H1477L1391 1053Z"  />
<glyph unicode="G" horiz-adv-x="1569" d="M696 -35Q520 -35 382 36T168 237T92 539Q92 792 209 1002T533 1333T989 1454Q1102 1454 1211 1428T1395 1358L1460 1419H1542L1434 911H1350Q1336 1144 1244 1256T977 1368Q816 1368 686 1253T482 938T408 508Q408 293 501 173T758 53Q827 53 886 71T1010 141L1069 377Q1085 439 1085 463Q1085 497 1067 518T1015 551T881 575L897 647H1593Q1583 613 1577 575Q1473 570 1421 538T1356 446L1323 301Q1291 177 1284 109Q1154 44 993 5T696 -35Z"  />
<glyph unicode="H" horiz-adv-x="1769" d="M1399 164Q1399 80 1571 70L1554 0H877L893 70Q1013 76 1058 101T1118 188L1233 692H602L496 236Q485 188 485 178Q485 132 519 107T653 70L637 0H-39L-25 70Q80 70 133 96T203 188L436 1202Q442 1230 442 1247Q442 1329 270 1350L287 1419H965L948 1350Q835 1342 787 1311T725 1223L625 784H1255L1350 1192Q1356 1220 1356 1241Q1356 1281 1309 1310T1188 1350L1204 1419H1882L1866 1350Q1751 1342 1703 1311T1640 1223L1409 221Q1399 179 1399 164Z"  />
<glyph unicode="I" horiz-adv-x="860" d="M446 1249Q446 1288 400 1312T258 1350L274 1419H987L971 1350Q878 1343 835 1330T764 1290T727 1225L494 209Q487 188 487 166Q487 124 524 103T676 70L659 0H-51L-35 70Q65 70 127 94T205 188L436 1194L446 1249Z"  />
<glyph unicode="J" horiz-adv-x="1139" d="M311 -37Q149 -37 51 43T-47 262Q-47 364 6 430T141 496Q210 496 250 459T291 358Q291 317 273 284T230 221T179 164T137 109Q148 83 185 64T276 45Q388 45 462 139T582 432L754 1192Q762 1224 762 1241Q762 1321 578 1350L594 1419H1290L1276 1350Q1189 1344 1148 1330T1082 1290T1047 1223L860 408Q817 219 662 91T311 -37Z"  />
<glyph unicode="K" horiz-adv-x="1546" d="M485 166Q485 80 655 70L639 0H-37L-23 70Q81 70 135 97T203 188L436 1202Q442 1230 442 1247Q442 1292 398 1314T272 1350L289 1419H967L950 1350Q865 1343 826 1329T760 1289T725 1223L610 729H643Q881 899 1074 1076T1268 1309Q1268 1323 1240 1333T1130 1350Q1143 1393 1147 1419H1722L1706 1350L1647 1341Q1511 1321 1438 1264Q1311 1167 1075 962L889 805L978 662L1237 238Q1286 151 1344 113T1491 70L1473 0H1026Q969 129 898 260T655 664H596L492 209Q485 188 485 166Z"  />
<glyph unicode="L" horiz-adv-x="1321" d="M442 1247Q442 1329 270 1350L287 1419H977L961 1350Q843 1341 792 1310T723 1221L504 268Q489 208 489 166Q489 115 526 98T700 80Q907 80 973 133Q1020 173 1087 253T1227 438H1296L1167 0H-39L-25 70Q72 70 129 96T203 188L436 1202Q442 1230 442 1247Z"  />
<glyph unicode="M" horiz-adv-x="2007" d="M2126 1419Q2122 1393 2109 1350Q1993 1341 1944 1310T1882 1223L1651 209L1647 168Q1647 127 1686 103T1821 70L1804 0H1108L1124 70Q1246 79 1300 106T1370 199L1612 1260H1602L829 23H741Q714 297 613 966L567 1282H557L457 846L356 412Q330 302 330 227Q330 179 350 149T406 100T524 70Q519 36 508 0H-82L-66 70Q27 77 85 102T176 187T246 399L412 1118Q424 1170 424 1204Q424 1338 240 1350L254 1419H817L963 416L1473 1243Q1534 1351 1559 1419H2126Z"  />
<glyph unicode="N" horiz-adv-x="1634" d="M1253 -12H1126L528 1155L358 414Q332 293 332 227Q332 170 348 144T419 98T530 70L514 0H-82L-66 70Q-24 73 35 88T119 119Q159 147 188 210T248 403L403 1081Q416 1129 416 1171Q416 1230 391 1264T323 1319T213 1350L231 1419H696L1233 365L1382 1008Q1409 1116 1409 1192Q1409 1234 1400 1259T1372 1297T1308 1326T1210 1350L1227 1419H1821L1804 1350L1769 1345Q1690 1333 1639 1309T1556 1220T1493 1020L1253 -12Z"  />
<glyph unicode="O" horiz-adv-x="1587" d="M1569 872Q1569 626 1450 415T1127 83T688 -37Q515 -37 378 36T167 242T92 543Q92 788 210 999T534 1332T971 1454Q1144 1454 1281 1382T1493 1178T1569 872ZM1255 952Q1255 1153 1175 1259T950 1366Q801 1366 679 1252T482 921T406 469Q406 267 486 159T713 51Q863 51 985 167T1181 498T1255 952Z"  />
<glyph unicode="P" horiz-adv-x="1348" d="M1102 1114Q1102 1225 1039 1281T852 1337H750L606 705H694Q818 705 909 751T1051 893T1102 1114ZM983 1419Q1194 1419 1307 1344T1421 1126Q1421 976 1335 861T1092 682T743 618H586L494 223Q485 191 485 164Q485 125 525 102T666 70L649 0H-39L-25 70Q72 70 129 97T203 190L436 1204L442 1247Q442 1284 397 1311T268 1350L283 1419H983Z"  />
<glyph unicode="Q" horiz-adv-x="1587" d="M1569 872Q1569 675 1490 496T1266 188T938 2L936 -53Q936 -158 986 -221T1126 -285Q1225 -285 1323 -262L1307 -340Q1236 -365 1139 -383T942 -401Q795 -401 715 -321T635 -90L637 -35Q388 -17 240 140T92 543Q92 788 210 999T534 1332T971 1454Q1144 1454 1281 1382T1493 1178T1569 872ZM1255 952Q1255 1153 1175 1259T950 1366Q801 1366 679 1252T482 921T406 469Q406 267 486 159T713 51Q863 51 984 165T1180 494T1255 952Z"  />
<glyph unicode="R" horiz-adv-x="1534" d="M1114 1122Q1114 1229 1049 1283T864 1337H750L612 727H731Q897 727 1005 837T1114 1122ZM485 164Q485 125 525 102T666 70L649 0H-41L-25 70Q71 70 129 97T203 190L436 1206Q442 1239 442 1249Q442 1286 396 1313T270 1350L287 1419H997Q1210 1419 1323 1349T1436 1145Q1436 977 1319 862T983 694L1229 246Q1281 149 1332 113T1481 70L1464 0H1026Q964 146 891 294T702 643H592L494 223Q485 191 485 164Z"  />
<glyph unicode="S" d="M535 -33Q418 -33 311 -6T129 70L57 0H-25L76 498H160Q181 288 284 173T553 57Q699 57 788 135T877 344Q877 499 696 567L558 619Q394 678 334 728T241 847T209 991Q209 1184 372 1318T772 1452Q982 1452 1137 1356L1200 1419H1284L1182 942H1100Q1083 1103 1045 1187T938 1316T766 1362Q645 1362 564 1289T483 1106Q483 1019 533 965T692 870L804 829Q1000 757 1078 673T1157 465Q1157 251 981 109T535 -33Z"  />
<glyph unicode="T" horiz-adv-x="1333" d="M729 170Q729 123 780 98T924 70L907 0H176L195 70Q297 76 341 89T411 128T446 197L711 1339H664Q574 1339 498 1331Q462 1326 408 1281T293 1160T199 1024H125L217 1419H1522L1432 1024H1358Q1352 1134 1310 1228T1210 1331Q1154 1339 1051 1339H995L735 215Q729 191 729 170Z"  />
<glyph unicode="U" horiz-adv-x="1626" d="M414 1247Q414 1292 368 1314T244 1350L262 1419H936L920 1350Q812 1342 763 1311T698 1225L524 479Q508 411 508 334Q508 211 580 148T795 84Q969 84 1092 191T1264 494L1384 1014Q1409 1121 1409 1200Q1409 1329 1208 1350L1225 1419H1821L1804 1350L1769 1345Q1664 1329 1622 1303T1548 1202T1493 1022L1374 504Q1313 239 1142 101T707 -37Q479 -37 349 56T219 313Q219 368 232 440T408 1204Q414 1230 414 1247Z"  />
<glyph unicode="V" horiz-adv-x="1462" d="M662 -16H520L324 1198Q313 1260 264 1301T137 1350L152 1419H817L799 1350Q694 1339 648 1324T602 1276Q602 1233 612 1169Q629 1050 675 764T752 307Q1102 858 1212 1049T1323 1272Q1323 1332 1128 1350L1145 1419H1708L1694 1350Q1606 1340 1542 1298T1425 1178Q1185 813 662 -16Z"  />
<glyph unicode="W" horiz-adv-x="2152" d="M1452 -16H1303L1180 1059Q1030 790 878 519T582 -16H438L342 1196Q334 1264 288 1303T164 1350L180 1419H836L819 1350Q714 1339 668 1323T621 1272Q621 1237 628 1127T686 373L1266 1409H1417L1544 340Q1738 704 1852 923Q1950 1112 1980 1182T2011 1272Q2011 1302 1968 1321T1819 1350L1835 1419H2390L2374 1350Q2210 1333 2116 1176L1452 -16Z"  />
<glyph unicode="X" horiz-adv-x="1548" d="M211 1350L227 1419H963L946 1350Q843 1343 791 1328T739 1282Q739 1235 782 1135T903 860Q1093 1047 1189 1158T1286 1292Q1286 1320 1246 1331T1133 1350L1149 1419H1702L1688 1350Q1629 1347 1585 1333T1502 1295T1418 1231T944 772Q1008 625 1064 502T1174 274T1258 138T1330 90T1438 70L1421 0H686L700 70Q804 75 855 89T907 135Q907 185 859 299T729 598Q526 401 415 274T303 125Q303 96 344 86T455 70L440 0H-115L-98 70Q-13 73 61 110T233 246L686 690L463 1169Q420 1270 368 1305T211 1350Z"  />
<glyph unicode="Y" horiz-adv-x="1378" d="M750 172Q750 125 800 99T944 70L928 0H201L217 70Q353 77 401 105T467 197L532 479Q545 531 545 549Q545 571 535 604T510 688Q408 1009 348 1176Q316 1261 269 1302T133 1350L150 1419H838L821 1350L760 1347Q621 1340 621 1292Q621 1272 667 1118T807 690Q1075 1006 1173 1132T1272 1284Q1272 1309 1242 1324T1104 1350L1122 1419H1642L1626 1350Q1577 1344 1536 1327T1454 1277T1345 1172T1193 1002T992 765T854 589T807 460T766 286T750 172Z"  />
<glyph unicode="Z" horiz-adv-x="1321" d="M1137 0H-94L-82 47L1098 1337H795Q664 1337 588 1308T443 1212T268 1001H193L332 1419H1475L1462 1370L285 80H614Q720 80 802 93T938 143T1061 257T1219 461H1290L1137 0Z"  />
<glyph unicode="[" horiz-adv-x="842" d="M-18 -309L403 1520H999L979 1427H629L248 -217H600L578 -309H-18Z"  />
<glyph unicode="\" horiz-adv-x="963" d="M586 -424L293 1524H444L739 -424H586Z"  />
<glyph unicode="]" horiz-adv-x="842" d="M-127 -309L-104 -217H246L625 1427H274L295 1520H893L471 -309H-127Z"  />
<glyph unicode="^" horiz-adv-x="1378" d="M1053 778L733 1296L414 778H244L670 1456H797L1223 778H1053Z"  />
<glyph unicode="_" horiz-adv-x="1378" d="M-184 -289L-160 -180H1227L1202 -289H-184Z"  />
<glyph unicode="`" horiz-adv-x="1024" d="M846 1106Q732 1191 641 1253Q556 1310 525 1333T475 1382T455 1444Q455 1482 484 1512T557 1542Q603 1542 634 1522T700 1446L887 1141L846 1106Z"  />
<glyph unicode="a" horiz-adv-x="1262" d="M932 -18Q850 -18 795 21T727 127H719Q639 60 594 32T500 -13T397 -31Q240 -31 154 71T68 356Q68 525 147 676T363 920T657 1012Q733 1012 801 993T909 942L1155 995L1167 981L1011 316Q993 242 993 207Q993 150 1018 130T1104 109Q1159 109 1219 131L1202 55Q1121 21 1058 2T932 -18ZM858 762Q858 843 816 884T696 926Q607 926 526 845T398 629T350 352Q350 219 391 161T518 102Q614 102 731 219L858 762Z"  />
<glyph unicode="b" horiz-adv-x="1231" d="M1163 629Q1163 450 1081 296T855 55T541 -33Q234 -33 98 174L354 1280Q365 1324 365 1343Q365 1381 351 1402T310 1435T195 1456L211 1524L659 1548L670 1532L518 877H524Q682 1012 825 1012Q983 1012 1073 912T1163 629ZM881 629Q881 760 836 820T702 881Q614 881 494 768L365 193Q367 157 390 122T451 66T537 45Q628 45 706 121T833 337T881 629Z"  />
<glyph unicode="c" horiz-adv-x="1014" d="M997 782Q997 700 954 648T840 596Q781 596 743 626T705 700Q705 764 770 889Q759 909 728 922T651 936Q569 936 499 868T390 680T350 418Q350 263 411 183T580 102Q673 102 746 142T905 295L969 244Q888 118 761 44T500 -31Q297 -31 183 78T68 381Q68 549 144 696T357 928T670 1012Q830 1012 913 950T997 782Z"  />
<glyph unicode="d" horiz-adv-x="1268" d="M999 188Q999 109 1110 109Q1165 109 1225 131L1206 55Q1037 -18 938 -18Q847 -18 797 22T735 131H727Q545 -31 397 -31Q240 -31 154 71T68 356Q68 527 147 680T361 922T651 1012Q727 1012 794 994T905 944L981 1278Q991 1318 991 1343Q991 1380 974 1401T923 1435T788 1456L805 1524L1286 1548L1298 1532L1024 350Q999 253 999 188ZM864 770Q861 841 814 885T690 930Q601 930 522 850T396 634T350 352Q350 219 391 161T518 102Q618 102 739 223L864 770Z"  />
<glyph unicode="e" horiz-adv-x="1053" d="M1012 793Q1012 716 974 656T865 551T670 470T344 408Q349 100 569 100Q672 100 750 144T911 295L977 244Q891 117 761 43T489 -31Q289 -31 180 76T70 373Q70 544 151 693T372 927T686 1012Q842 1012 927 957T1012 793ZM756 793Q756 861 726 898T639 936Q574 936 512 878T407 714T348 483Q520 510 583 536T683 598T738 681T756 793Z"  />
<glyph unicode="f" horiz-adv-x="727" d="M1106 1397Q1106 1341 1070 1305T979 1268Q876 1268 812 1405L780 1468Q662 1412 594 1067L575 973H829L805 877H557L535 764Q507 623 450 362T383 59Q349 -80 264 -196T64 -378T-168 -444Q-281 -444 -339 -405T-397 -289Q-397 -235 -362 -199T-272 -162Q-168 -162 -103 -299L-72 -362Q50 -310 117 23L297 877H102L125 973H319L334 1042Q362 1181 445 1299T644 1483T877 1550Q990 1550 1048 1511T1106 1397Z"  />
<glyph unicode="g" horiz-adv-x="1251" d="M864 766Q864 841 819 883T694 926Q604 926 524 848T397 635T350 358Q350 109 524 109Q561 109 596 122T665 157T752 227Q799 467 864 766ZM729 119L721 121Q627 44 548 12T399 -20Q241 -20 155 79T68 360Q68 536 149 687T366 925T655 1012Q735 1012 803 992T913 942L1159 995L1171 981L1001 180Q935 -132 774 -288T340 -444Q10 -444 10 -272Q10 -217 45 -181T137 -145Q191 -145 237 -187T319 -302L350 -369Q462 -356 532 -300T650 -140T729 119Z"  />
<glyph unicode="h" horiz-adv-x="1268" d="M936 -16Q844 -16 788 31T731 158Q731 220 758 324L834 610Q858 706 858 745Q858 805 829 836T743 868Q688 868 619 831T483 727L317 0H59L354 1280Q365 1328 365 1343Q365 1381 352 1403T310 1436T195 1456L211 1524L659 1548L672 1532L510 840H516Q641 941 726 976T903 1012Q1002 1012 1063 956T1124 807Q1124 743 1102 653L1022 352Q997 266 997 209Q997 152 1022 131T1108 109Q1129 109 1166 117T1223 133L1204 57Q1124 25 1059 5T936 -16Z"  />
<glyph unicode="i" horiz-adv-x="678" d="M678 1374Q678 1306 630 1259T516 1212Q449 1212 402 1258T354 1370Q354 1438 402 1485T516 1532Q583 1532 630 1486T678 1374ZM344 -25Q250 -25 195 23T139 152Q139 217 158 283L252 643Q276 751 276 788Q276 847 253 866T174 885Q138 885 55 860L74 938Q248 1012 340 1012Q442 1012 491 963T541 836Q541 767 524 702L428 346Q403 260 403 201Q403 144 429 123T516 102Q568 102 631 125L612 49Q531 15 466 -5T344 -25Z"  />
<glyph unicode="j" horiz-adv-x="672" d="M686 1374Q686 1306 638 1259T524 1212Q457 1212 410 1258T362 1370Q362 1438 410 1485T524 1532Q591 1532 638 1486T686 1374ZM561 836Q561 777 523 571T408 59Q371 -81 288 -197T93 -379T-133 -444Q-246 -444 -304 -405T-362 -289Q-362 -233 -327 -198T-236 -162Q-134 -162 -67 -299L-35 -362Q72 -299 143 23Q224 370 276 659Q295 759 295 799Q295 845 275 865T203 885Q147 885 66 858L84 936Q263 1012 360 1012Q461 1012 511 963T561 836Z"  />
<glyph unicode="k" horiz-adv-x="1196" d="M1184 877Q1184 817 1140 772T1034 727Q957 727 860 788Q794 746 763 721T682 649Q779 398 822 300T892 167T949 116T1026 100Q1074 100 1155 127L1137 49Q963 -23 858 -23Q767 -23 713 19T621 147Q572 250 526 380L496 463L403 381L317 0H59L354 1280Q365 1328 365 1343Q365 1381 352 1403T310 1436T195 1456L211 1524L659 1548L672 1532L428 492H434Q604 677 739 807T931 973T1049 1008Q1110 1008 1147 974T1184 877Z"  />
<glyph unicode="l" horiz-adv-x="653" d="M373 201Q373 144 400 123T489 102Q517 102 554 110T612 125L594 49Q422 -23 319 -23Q223 -23 166 24T109 152Q109 207 127 283L356 1280Q367 1328 367 1348Q367 1383 354 1403T314 1435T197 1456L213 1524L662 1548L672 1532L399 346Q373 236 373 201Z"  />
<glyph unicode="m" horiz-adv-x="1925" d="M1595 -16Q1502 -16 1447 30T1391 158Q1391 228 1409 291L1493 610Q1518 710 1518 745Q1518 804 1490 836T1405 868Q1296 868 1159 731L989 0H731L879 639Q897 716 897 748Q897 814 864 841T782 868Q667 868 526 727L360 0H102L246 631Q270 733 270 776Q270 833 249 853T170 874Q147 874 113 866T53 848L72 926Q244 999 340 999Q428 999 476 960T541 831H547Q679 941 759 976T938 1012Q1034 1012 1094 960T1161 825H1167Q1303 939 1386 975T1565 1012Q1664 1012 1724 957T1784 807Q1784 740 1761 653L1681 352Q1657 269 1657 209Q1657 152 1681 132T1765 111Q1834 111 1882 133L1864 55Q1782 23 1717 4T1595 -16Z"  />
<glyph unicode="n" horiz-adv-x="1311" d="M979 -16Q886 -16 830 30T774 158Q774 217 793 291L877 610Q901 706 901 745Q901 805 872 836T786 868Q730 868 663 833T526 727L360 0H102L246 631Q253 656 261 704T270 776Q270 832 251 852T170 872Q150 872 112 864T53 848L72 926Q244 999 340 999Q430 999 478 961T541 831H547Q667 931 756 971T946 1012Q1045 1012 1106 956T1167 807Q1167 736 1145 653L1065 352Q1040 266 1040 209Q1040 155 1063 133T1151 111Q1176 111 1210 118T1266 135L1247 57Q1166 25 1101 5T979 -16Z"  />
<glyph unicode="o" horiz-adv-x="1200" d="M1133 606Q1133 433 1051 285T822 52T492 -33Q299 -33 184 78T68 377Q68 554 150 701T376 931T700 1014Q902 1014 1017 905T1133 606ZM856 682Q856 810 811 874T680 938Q583 938 509 862T390 632T344 303Q344 43 522 43Q616 43 690 121T810 354T856 682Z"  />
<glyph unicode="p" horiz-adv-x="1270" d="M1202 629Q1202 451 1123 301T901 62T596 -27Q463 -27 369 45L319 -178Q303 -245 303 -279Q303 -326 342 -349T483 -377L469 -444H-168L-152 -377Q-48 -372 -10 -346T43 -264L246 631Q268 719 268 776Q268 833 247 852T168 872Q147 872 109 864T51 848L70 926Q148 958 212 977T336 997Q418 997 466 966T537 860H545Q716 1012 866 1012Q1025 1012 1113 912T1202 629ZM920 629Q920 760 875 820T741 881Q650 881 535 766L408 209Q411 145 459 98T582 51Q672 51 750 129T874 342T920 629Z"  />
<glyph unicode="q" horiz-adv-x="1233" d="M864 762Q864 838 820 882T694 926Q606 926 526 846T398 631T350 352Q350 219 391 161T518 102Q618 102 741 225L864 762ZM711 119L657 76Q527 -29 397 -29Q239 -29 154 73T68 356Q68 525 147 677T367 919T662 1010Q740 1010 808 992T915 942L1159 995L1171 981L897 -217Q887 -257 887 -285Q887 -326 931 -350T1063 -377L1049 -444H412L426 -377Q533 -372 573 -349T629 -264L717 119H711Z"  />
<glyph unicode="r" horiz-adv-x="1018" d="M1030 825Q1030 738 984 683T862 627Q802 627 765 656T727 729Q727 766 741 803T776 887Q641 853 524 713L362 0H104L246 631Q254 659 262 708T270 782Q270 827 250 849T170 872Q150 872 112 864T53 848L72 926Q244 999 340 999Q432 999 479 960T541 825H547Q648 919 693 951T776 997T860 1012Q938 1012 984 967T1030 825Z"  />
<glyph unicode="s" horiz-adv-x="971" d="M391 770Q391 729 405 702T454 654T596 592Q745 536 803 470T862 311Q862 155 734 62T397 -31Q225 -31 119 23T12 168Q12 222 49 258T143 295Q203 295 246 252T312 135L334 63Q376 49 418 49Q510 49 563 97T616 231Q616 279 579 315T467 381Q302 448 250 486T172 575T145 690Q145 778 202 853T362 970T594 1012Q754 1012 842 966T930 836Q930 784 894 749T805 713Q747 713 706 753T643 866L621 934Q598 936 592 936Q502 936 447 889T391 770Z"  />
<glyph unicode="t" horiz-adv-x="782" d="M401 201Q401 150 428 127T516 104Q546 104 601 113T682 133L664 51Q491 -23 354 -23Q249 -23 190 24T131 154Q131 185 136 223T182 438T287 877H106L129 973H313L385 1272H637L567 973H842L821 877H547Q401 289 401 201Z"  />
<glyph unicode="u" horiz-adv-x="1290" d="M965 -18Q876 -18 820 27T754 150H748Q633 49 545 11T358 -27Q259 -27 200 28T141 178Q141 243 164 332L240 631Q264 739 264 776Q264 830 243 851T164 872Q142 872 105 864T47 848L66 926Q238 999 328 999Q426 999 478 953T530 825Q530 755 512 692L432 373Q410 289 410 240Q410 117 518 117Q572 117 636 149T768 246L938 983L1184 995L1196 981L1051 352Q1024 255 1024 209Q1024 152 1049 131T1135 109Q1162 109 1196 117T1249 133L1233 55Q1151 23 1086 3T965 -18Z"  />
<glyph unicode="v" horiz-adv-x="1178" d="M807 864Q807 930 852 971T961 1012Q1038 1012 1079 954T1120 766Q1120 564 1032 376T798 79T485 -31Q329 -31 238 46T147 262Q147 319 165 387T206 524T247 658T266 776Q266 828 245 850T164 872Q112 872 47 846L63 924Q244 999 330 999Q433 999 480 950T528 817Q528 746 510 671T470 525T430 388T412 274Q412 189 457 144T584 98Q675 98 759 157T895 320T946 539Q946 626 877 707Q807 787 807 864Z"  />
<glyph unicode="w" horiz-adv-x="1798" d="M528 799Q528 710 468 517Q408 323 408 250Q408 178 441 146T526 113Q588 113 652 148T774 248Q826 527 938 983L1184 995L1196 981L1069 434Q1040 318 1040 262Q1040 100 1208 100Q1299 100 1383 160T1517 323T1567 543Q1567 588 1550 625T1497 700Q1461 738 1444 777T1427 864Q1427 929 1471 970T1581 1012Q1658 1012 1700 954T1743 760Q1743 555 1656 368T1422 75T1104 -31Q984 -31 899 23T784 176Q678 65 586 18T395 -29Q278 -29 211 41T143 227Q143 307 204 506Q264 705 264 776Q264 830 243 851T164 872Q142 872 105 864T47 848L66 926Q238 999 328 999Q528 999 528 799Z"  />
<glyph unicode="x" horiz-adv-x="1110" d="M1143 883Q1143 816 1100 774T993 731Q944 731 907 741T834 762Q736 669 664 549Q698 393 756 225Q794 102 915 102Q937 102 977 109T1044 127L1024 49Q853 -23 748 -23Q654 -23 600 21T520 152L471 346Q404 239 334 143T210 14T98 -20Q43 -20 6 13T-31 104Q-31 174 15 216T133 258Q173 258 211 246T283 223Q362 291 449 432Q424 537 387 662T330 816T281 859T209 872Q162 872 84 846L102 924Q286 999 367 999Q446 999 494 970T570 885T641 633L703 729Q730 775 770 825Q842 927 897 967T1018 1008Q1072 1008 1107 972T1143 883Z"  />
<glyph unicode="y" horiz-adv-x="1257" d="M367 -442Q203 -442 118 -402T33 -274Q33 -219 68 -183T160 -147Q206 -147 240 -172T301 -235T373 -369Q460 -369 535 -309T668 -133T760 152H754Q647 58 556 19T362 -20Q263 -20 202 36T141 184Q141 249 168 352L240 631Q264 739 264 776Q264 831 243 851T164 872Q142 872 105 864T47 848L66 926Q238 999 328 999Q431 999 480 952T530 825Q530 753 510 680L432 379Q408 287 408 246Q408 187 438 154T524 121Q580 121 645 153T778 250L938 983L1182 995L1194 981L1022 182Q956 -120 789 -281T367 -442Z"  />
<glyph unicode="z" horiz-adv-x="983" d="M283 82H453Q553 82 627 86Q690 89 735 166T836 354H901L831 0H-27L-10 76L690 899H565Q490 899 437 896T344 877Q316 866 275 810T199 672H133L195 981H1008L995 915L283 82Z"  />
<glyph unicode="{" horiz-adv-x="952" d="M694 -334Q442 -334 342 -271T242 -70Q242 -7 284 150Q326 306 326 371Q326 427 302 462T227 515T72 543L104 680Q255 690 331 726T443 834T494 1047Q508 1204 542 1287T646 1426T822 1509T1106 1536L1090 1456Q976 1449 926 1428T841 1366T793 1253L782 1194L741 991Q717 883 668 815T542 706T295 633L281 578Q430 548 493 483T557 307Q557 251 522 106Q487 -39 487 -94Q487 -148 510 -180T575 -230T713 -254L694 -334Z"  />
<glyph unicode="|" horiz-adv-x="780" d="M340 -424V1524H489V-424H340Z"  />
<glyph unicode="}" horiz-adv-x="952" d="M283 1536Q535 1536 635 1473T735 1272Q735 1209 693 1053Q651 896 651 831Q651 750 703 711T905 659L872 522Q720 512 645 476T533 367T484 156Q469 -1 435 -84T330 -224T152 -307T-129 -334L-113 -254Q-3 -247 49 -227T136 -164T184 -51L195 9L236 211Q260 318 309 386T434 495T682 569L696 625Q544 656 482 721T420 895Q420 938 431 990T454 1097T478 1202T489 1296Q489 1351 466 1383T400 1433T264 1456L283 1536Z"  />
<glyph unicode="~" horiz-adv-x="1378" d="M1264 725Q1237 645 1181 571T1056 452T911 408Q795 408 661 486Q589 527 541 545T453 563Q413 563 382 547T325 498T252 377L162 412Q191 495 249 572T376 689T514 729Q575 729 635 710T766 651Q847 605 890 589T971 573Q1028 573 1072 609T1174 760L1264 725Z"  />
<glyph unicode="&#xA0;" horiz-adv-x="506" />
<glyph unicode="&#xA1;" horiz-adv-x="723" d="M698 1290Q698 1224 651 1176T535 1128Q465 1128 418 1176T371 1290Q371 1356 418 1403T535 1450Q602 1450 650 1404T698 1290ZM436 979H514Q499 804 471 340Q460 140 410 60T248 -20Q186 -20 152 11T117 88Q117 148 172 291L219 409Q340 708 436 979Z"  />
<glyph unicode="&#xA2;" horiz-adv-x="1188" d="M1083 254Q989 123 878 56T625 -25L563 -299H469L530 -23Q340 -2 238 107T135 391Q135 562 215 705T440 931T766 1018L823 1276H920L860 1016Q979 996 1051 926T1124 774Q1124 709 1087 675T991 641Q941 641 909 673T877 752Q877 795 903 883Q897 904 877 915T842 930Q825 853 653 104Q772 106 854 150T1020 299L1083 254ZM750 940Q655 935 580 870T461 685T418 410Q418 182 565 121L750 940Z"  />
<glyph unicode="&#xA3;" horiz-adv-x="1343" d="M1337 1204Q1337 1124 1296 1073T1188 1022Q1120 1022 1082 1055T1044 1145Q1044 1194 1085 1286L1100 1325Q1068 1376 979 1376Q918 1376 867 1344T775 1248T715 1083L684 904L653 727H1049L1026 625H639Q605 486 530 394T322 233L319 217H1171L1120 0H10L49 168Q182 208 263 317T369 625H182L205 727H385Q387 755 399 848T418 975Q442 1112 526 1223T737 1396T1012 1458Q1154 1458 1245 1387T1337 1204Z"  />
<glyph unicode="&#xA4;" horiz-adv-x="1305" d="M1053 92L840 301Q762 252 676 252Q590 252 512 301L299 90L203 193L412 403Q362 479 362 565Q362 651 412 727L203 942L303 1038L512 829Q588 877 676 877Q760 877 838 831L1047 1038L1149 942L940 727Q987 652 987 565Q987 478 940 403L1149 190L1053 92ZM858 565Q858 641 806 696T676 752Q598 752 545 697T492 565Q492 490 544 435T676 379Q751 379 804 432T858 565Z"  />
<glyph unicode="&#xA5;" horiz-adv-x="1378" d="M813 569H1231L1206 467H793L733 217Q727 190 727 168Q727 138 745 120T796 90T911 68L895 0H203L219 68Q342 75 392 104T457 197L520 467H111L135 569H545L555 614Q474 880 369 1178Q335 1261 289 1301T160 1350L176 1419H838L821 1350L767 1347Q708 1345 671 1331T633 1292Q633 1276 646 1228T684 1095T805 748L995 975L1126 1135Q1200 1227 1214 1250T1229 1286Q1229 1305 1214 1317T1170 1336T1071 1350L1090 1419H1591L1573 1350Q1434 1329 1305 1188Q1099 956 827 629L813 569Z"  />
<glyph unicode="&#xA6;" horiz-adv-x="780" d="M340 723V1524H489V723H340ZM340 -424V385H489V-424H340Z"  />
<glyph unicode="&#xA7;" horiz-adv-x="1087" d="M1077 1278Q1077 1224 1044 1189T954 1153Q862 1153 820 1297L799 1370Q779 1376 750 1376Q644 1376 573 1322T502 1186Q502 1137 539 1099T658 1023L770 969Q999 861 999 688Q999 570 917 479T672 330Q836 250 836 104Q836 7 771 -74T592 -201T338 -246Q200 -246 120 -200T39 -68Q39 -17 71 18T162 53Q201 53 227 31T270 -26T315 -162Q337 -168 365 -168Q478 -168 548 -113T618 31Q618 70 599 99T540 155T369 244Q245 301 187 372T129 532Q129 773 451 889Q283 972 283 1114Q283 1207 345 1285T522 1409T778 1454Q919 1454 998 1408T1077 1278ZM782 614Q782 658 760 693T696 759T524 852Q344 761 344 606Q344 559 365 524T432 456T604 362Q782 462 782 614Z"  />
<glyph unicode="&#xA8;" horiz-adv-x="1024" d="M1051 1356Q1051 1298 1011 1255T913 1212Q854 1212 814 1255T774 1356Q774 1416 815 1458T913 1501Q970 1501 1010 1459T1051 1356ZM588 1356Q588 1298 548 1255T451 1212Q394 1212 353 1254T311 1356Q311 1417 352 1459T451 1501Q507 1501 547 1459T588 1356Z"  />
<glyph unicode="&#xA9;" horiz-adv-x="1929" d="M1872 604Q1872 370 1755 166T1434 -160T989 -281Q750 -281 546 -162T222 162T102 604Q102 837 220 1041T544 1365T989 1485Q1230 1485 1435 1363T1756 1038T1872 604ZM1774 604Q1774 821 1668 1005T1381 1293T989 1397Q780 1397 600 1295T311 1008T203 604Q203 381 311 195T600 -93T989 -195Q1198 -195 1379 -92T1667 196T1774 604ZM1407 391Q1353 257 1247 185T1004 113Q860 113 747 172T571 341T508 592Q508 734 574 849T760 1029T1028 1094Q1096 1094 1158 1075T1262 1030L1300 1090H1364L1366 723H1307Q1247 895 1180 956T1014 1018Q893 1018 824 908T754 608Q754 424 834 320T1051 215Q1145 215 1216 263T1346 422L1407 391Z"  />
<glyph unicode="&#xAA;" horiz-adv-x="1077" d="M870 621Q803 621 756 651T696 737H690Q557 610 426 610Q296 610 225 691T154 924Q154 1061 220 1184T402 1380T647 1454Q771 1454 854 1399L1057 1444L1071 1430L944 924Q924 837 924 801Q924 763 944 745T1016 727Q1057 727 1112 750L1096 680Q1006 643 959 632T870 621ZM805 1249Q805 1380 680 1380Q605 1380 539 1316T434 1147T395 924Q395 825 423 774T524 723Q561 723 601 744T698 821L805 1249Z"  />
<glyph unicode="&#xAB;" horiz-adv-x="1219" d="M530 109L350 280Q289 336 239 387T176 457T164 506Q164 587 252 649Q618 900 719 967L760 920L383 526L590 145L530 109ZM946 109Q717 322 660 379T591 457T580 506Q580 590 668 649Q765 716 879 795T1135 967L1174 920L799 526L1006 145L946 109Z"  />
<glyph unicode="&#xAC;" horiz-adv-x="1378" d="M1087 61V524H178V668H1237V61H1087Z"  />
<glyph unicode="&#xAD;" horiz-adv-x="770" d="M72 451L115 637H715L674 451H72Z"  />
<glyph unicode="&#xAE;" horiz-adv-x="1929" d="M1872 604Q1872 370 1755 166T1434 -160T989 -281Q750 -281 546 -162T222 162T102 604Q102 837 220 1041T544 1365T989 1485Q1230 1485 1435 1363T1756 1038T1872 604ZM1774 604Q1774 821 1668 1005T1381 1293T989 1397Q780 1397 600 1295T311 1008T203 604Q203 381 311 195T600 -93T989 -195Q1198 -195 1379 -92T1667 196T1774 604ZM1257 145Q1151 297 1100 365T950 555H881V289Q881 249 907 231T1012 203V145H551V203Q640 213 662 230T684 287V920Q684 977 643 992T551 1018V1075H1055Q1214 1075 1299 1018T1384 854Q1384 754 1330 693T1155 596L1386 307Q1450 224 1541 209L1581 203V145H1257ZM1163 834Q1163 1004 965 1004H881V627H948Q1048 627 1105 678T1163 834Z"  />
<glyph unicode="&#xAF;" horiz-adv-x="1329" d="M209 1604L236 1712H1624L1597 1604H209Z"  />
<glyph unicode="&#xB0;" horiz-adv-x="858" d="M842 1128Q842 986 749 894T508 801Q360 801 266 894T172 1128Q172 1272 267 1364T508 1456Q654 1456 748 1364T842 1128ZM678 1120Q678 1244 631 1308T506 1372Q429 1372 384 1308T338 1130Q338 1015 381 949T510 883Q585 883 631 949T678 1120Z"  />
<glyph unicode="&#xB1;" horiz-adv-x="1378" d="M180 0V143H639V541H180V686H639V1149H784V686H1245V541H784V143H1245V0H180Z"  />
<glyph unicode="&#xB2;" horiz-adv-x="1077" d="M643 1378Q574 1378 514 1337Q532 1274 532 1237Q532 1178 499 1144T399 1110Q351 1110 326 1139T301 1212Q301 1270 352 1327T493 1419T684 1454Q848 1454 942 1391T1036 1221Q1036 1126 994 1056T874 932T586 798Q405 729 346 670H973L934 489H145L176 631Q229 685 295 727T431 809T567 889T684 978T767 1088T799 1233Q799 1307 757 1342T643 1378Z"  />
<glyph unicode="&#xB3;" horiz-adv-x="1077" d="M1024 1253Q1024 1158 950 1090T750 993L748 985Q859 974 918 924T977 793Q977 646 842 550T502 453Q355 453 260 510T164 653Q164 704 196 742T279 780Q334 780 363 753T393 684Q393 649 381 622T356 569Q413 526 485 526Q603 526 673 600T743 805Q743 932 578 932H479L502 1024H571Q675 1024 734 1086T793 1260Q793 1312 756 1346T651 1380Q609 1380 574 1366T522 1339Q527 1319 533 1298T539 1249Q539 1126 412 1126Q364 1126 339 1154T313 1225Q313 1280 366 1334T507 1421T700 1454Q808 1454 878 1429T986 1358T1024 1253Z"  />
<glyph unicode="&#xB4;" horiz-adv-x="1024" d="M922 1462Q922 1429 910 1406T863 1355T708 1253Q597 1184 483 1106L444 1141Q503 1218 577 1323L664 1446Q702 1502 735 1522T821 1542Q863 1542 892 1518T922 1462Z"  />
<glyph unicode="&#xB5;" horiz-adv-x="1274" d="M1167 995L1180 983L1106 668Q1072 517 1037 364T1008 207Q1008 151 1033 130T1118 109Q1145 109 1181 117T1233 133L1214 55Q1133 23 1068 4T946 -16Q857 -16 803 29T737 150H731Q577 -23 403 -23Q276 -23 221 55H213Q197 -30 197 -86L203 -231Q203 -326 157 -384T33 -442Q-11 -442 -39 -416T-68 -342Q-68 -288 9 -116Q64 9 96 139L291 983L537 995L549 983L401 348Q387 283 387 242Q387 115 504 115Q576 115 636 152T752 246L920 983L1167 995Z"  />
<glyph unicode="&#xB6;" horiz-adv-x="1149" d="M1282 1419L1262 1333H1096L733 -225H627L991 1333H823L461 -225H354Q509 427 567 682Q399 684 297 772T195 997Q195 1113 257 1211T430 1364T676 1419H1282Z"  />
<glyph unicode="&#xB7;" horiz-adv-x="631" d="M498 553Q498 484 450 436T332 387Q261 387 213 435T164 553Q164 622 213 670T332 719Q399 719 448 670T498 553Z"  />
<glyph unicode="&#xB8;" horiz-adv-x="1024" d="M694 -225Q694 -336 588 -390T229 -444L246 -371Q378 -371 421 -362T490 -333T516 -276Q516 -245 484 -230T377 -215L426 16H508L483 -98Q584 -98 639 -132T694 -225Z"  />
<glyph unicode="&#xB9;" horiz-adv-x="1077" d="M852 1448L821 1331L793 1214L668 680L659 633Q659 599 690 580Q720 567 827 557L811 489H215L231 557Q364 568 385 575Q436 591 449 645L586 1253H385L403 1333H455Q621 1333 750 1448H852Z"  />
<glyph unicode="&#xBA;" horiz-adv-x="1077" d="M1065 1124Q1065 983 994 862T800 673T530 606Q368 606 271 698T174 940Q174 1082 243 1201T433 1387T702 1454Q874 1454 969 1366T1065 1124ZM827 1184Q827 1382 686 1382Q606 1382 546 1321T450 1138T414 879Q414 777 451 728T557 678Q632 678 692 743T790 929T827 1184Z"  />
<glyph unicode="&#xBB;" horiz-adv-x="1219" d="M1090 567Q1090 485 1001 424Q805 288 703 217T535 106L494 154L870 545L664 928L723 965Q776 920 918 782T1075 621T1090 567ZM676 567Q676 486 588 424L468 341Q225 172 121 106L80 154L457 545L250 928L309 965Q389 897 639 647Q676 607 676 567Z"  />
<glyph unicode="&#xBC;" horiz-adv-x="2171" d="M623 0H477L1544 1423H1692L623 0ZM779 1448L748 1331L720 1214L595 680L586 633Q586 599 617 580Q647 567 754 557L738 489H142L158 557Q291 568 312 575Q363 591 376 645L513 1253H312L330 1333H382Q548 1333 677 1448H779ZM2012 348L1979 212H1821L1770 -19H1571L1624 212H1127L1160 356L1829 964H1995L1854 348H2012ZM1756 784L1272 348H1655L1756 784Z"  />
<glyph unicode="&#xBD;" horiz-adv-x="2171" d="M608 0H462L1529 1423H1677L608 0ZM773 1448L742 1331L714 1214L589 680L580 633Q580 599 611 580Q641 567 748 557L732 489H136L152 557Q285 568 306 575Q357 591 370 645L507 1253H306L324 1333H376Q542 1333 671 1448H773ZM1704 890Q1635 890 1575 849Q1593 786 1593 749Q1593 690 1560 656T1460 622Q1412 622 1387 651T1362 724Q1362 782 1413 839T1554 931T1745 966Q1909 966 2003 903T2097 733Q2097 638 2055 568T1935 444T1647 310Q1466 241 1407 182H2034L1995 1H1206L1237 143Q1290 197 1356 239T1492 321T1628 401T1745 490T1828 600T1860 745Q1860 819 1818 854T1704 890Z"  />
<glyph unicode="&#xBE;" horiz-adv-x="2171" d="M762 0H616L1683 1423H1831L762 0ZM2081 348L2048 212H1890L1839 -19H1640L1693 212H1196L1229 356L1898 964H2064L1923 348H2081ZM1825 784L1341 348H1724L1825 784ZM1011 1253Q1011 1158 937 1090T737 993L735 985Q846 974 905 924T964 793Q964 646 829 550T489 453Q342 453 247 510T151 653Q151 704 183 742T266 780Q321 780 350 753T380 684Q380 649 368 622T343 569Q400 526 472 526Q590 526 660 600T730 805Q730 932 565 932H466L489 1024H558Q662 1024 721 1086T780 1260Q780 1312 743 1346T638 1380Q596 1380 561 1366T509 1339Q514 1319 520 1298T526 1249Q526 1126 399 1126Q351 1126 326 1154T300 1225Q300 1280 353 1334T494 1421T687 1454Q795 1454 865 1429T973 1358T1011 1253Z"  />
<glyph unicode="&#xBF;" horiz-adv-x="1051" d="M932 1292Q932 1225 883 1177T768 1128Q699 1128 651 1177T602 1292Q602 1356 650 1404T768 1452Q836 1452 884 1405T932 1292ZM895 252Q895 181 836 116T677 13T457 -25Q276 -25 165 70T53 322Q53 539 213 681T641 848L680 1022H770L692 639Q493 622 389 526T285 268Q285 167 338 110T487 53Q564 53 627 96Q613 165 613 214Q613 292 656 332T774 373Q827 373 861 340T895 252Z"  />
<glyph unicode="&#xC0;" horiz-adv-x="1462" d="M1397 0H727L743 70Q950 87 950 139L944 199L899 485H406Q335 373 282 269T229 147Q229 115 283 94T418 70L403 0H-166L-152 70Q-57 74 10 116T133 246Q174 309 216 375T889 1440H1028L1229 209Q1251 80 1411 70L1397 0ZM795 1108L463 573H883L795 1108ZM1108 1495L953 1568Q737 1664 709 1682T669 1718T657 1763Q657 1807 689 1836T772 1866Q814 1866 848 1844T919 1780L1059 1624L1144 1536L1108 1495Z"  />
<glyph unicode="&#xC1;" horiz-adv-x="1462" d="M1397 0H727L743 70Q950 87 950 139L944 199L899 485H406Q335 373 282 269T229 147Q229 115 283 94T418 70L403 0H-166L-152 70Q-57 74 10 116T133 246Q174 309 216 375T889 1440H1028L1229 209Q1251 80 1411 70L1397 0ZM795 1108L463 573H883L795 1108ZM1288 1782Q1288 1738 1261 1711T1188 1663L1032 1598L793 1495L762 1536L922 1683L1038 1800Q1101 1868 1173 1868Q1223 1868 1255 1844T1288 1782Z"  />
<glyph unicode="&#xC2;" horiz-adv-x="1462" d="M1397 0H727L743 70Q950 87 950 139L944 199L899 485H406Q335 373 282 269T229 147Q229 115 283 94T418 70L403 0H-166L-152 70Q-57 74 10 116T133 246Q174 309 216 375T889 1440H1028L1229 209Q1251 80 1411 70L1397 0ZM795 1108L463 573H883L795 1108ZM1296 1526L1253 1495L981 1702L629 1495L590 1526L899 1831Q943 1868 1006 1868Q1039 1868 1063 1858T1108 1819L1296 1526Z"  />
<glyph unicode="&#xC3;" horiz-adv-x="1462" d="M1397 0H727L743 70Q950 87 950 139L944 199L899 485H406Q335 373 282 269T229 147Q229 115 283 94T418 70L403 0H-166L-152 70Q-57 74 10 116T133 246Q174 309 216 375T889 1440H1028L1229 209Q1251 80 1411 70L1397 0ZM795 1108L463 573H883L795 1108ZM1399 1842Q1375 1773 1328 1710T1223 1610T1104 1573Q1044 1573 1000 1589T917 1624T843 1660T764 1676Q739 1676 721 1665T685 1634T621 1538L557 1565Q609 1685 688 1760T848 1835Q901 1835 945 1819T1027 1783T1099 1747T1169 1731Q1207 1731 1233 1742T1280 1777T1335 1868L1399 1842Z"  />
<glyph unicode="&#xC4;" horiz-adv-x="1462" d="M1397 0H727L743 70Q950 87 950 139L944 199L899 485H406Q335 373 282 269T229 147Q229 115 283 94T418 70L403 0H-166L-152 70Q-57 74 10 116T133 246Q174 309 216 375T889 1440H1028L1229 209Q1251 80 1411 70L1397 0ZM795 1108L463 573H883L795 1108ZM1344 1716Q1344 1656 1303 1614T1206 1571Q1149 1571 1109 1614T1069 1716Q1069 1775 1109 1817T1206 1860Q1263 1860 1303 1818T1344 1716ZM852 1716Q852 1655 811 1613T713 1571Q658 1571 617 1612T576 1716Q576 1777 616 1818T713 1860Q769 1860 810 1818T852 1716Z"  />
<glyph unicode="&#xC5;" horiz-adv-x="1462" d="M1397 0H727L743 70Q950 87 950 139L944 199L899 485H406Q335 373 282 269T229 147Q229 115 283 94T418 70L403 0H-166L-152 70Q-57 74 10 116T133 246Q174 309 216 375T889 1440H1028L1229 209Q1251 80 1411 70L1397 0ZM795 1108L463 573H883L795 1108ZM1249 1640Q1249 1527 1161 1451T936 1374Q826 1374 763 1425T700 1562Q700 1679 791 1754T1014 1829Q1120 1829 1184 1778T1249 1640ZM1110 1640Q1110 1694 1083 1728T1001 1763Q929 1763 884 1705T839 1562Q839 1508 866 1474T950 1440Q1020 1440 1065 1496T1110 1640Z"  />
<glyph unicode="&#xC6;" horiz-adv-x="2095" d="M1890 0H651L668 70Q794 77 841 105T901 193L993 598H512Q320 355 279 298T216 202T193 147Q193 83 356 70L342 0H-219L-205 70Q-116 77 -45 119T96 246Q374 586 956 1317Q937 1327 887 1337T780 1350L797 1419H2140L2060 1067H1985Q1974 1167 1928 1243T1821 1329Q1764 1339 1651 1339H1448L1319 776H1456Q1501 776 1532 782T1587 798T1640 833T1702 907T1757 1016H1833L1700 442H1626Q1626 573 1610 614T1553 675T1438 694H1300L1202 270Q1188 214 1188 170Q1188 118 1224 100T1386 82Q1527 82 1597 95T1698 133Q1747 172 1824 267T1944 430H2017L1890 0ZM1163 1333H1096L584 688H1014L1163 1333Z"  />
<glyph unicode="&#xC7;" horiz-adv-x="1389" d="M1337 356Q1104 -35 676 -35Q506 -35 372 37T165 241T92 543Q92 784 207 995T521 1330T954 1454Q1061 1454 1170 1429T1350 1358L1415 1419H1499L1389 907H1305Q1282 1147 1194 1257T954 1368Q807 1368 684 1263T484 961T408 537Q408 328 508 207T778 86Q915 86 1034 162T1264 401L1337 356ZM891 -225Q891 -336 785 -390T426 -444L443 -371Q575 -371 618 -362T687 -333T713 -276Q713 -245 681 -230T574 -215L623 16H705L680 -98Q781 -98 836 -132T891 -225Z"  />
<glyph unicode="&#xC8;" horiz-adv-x="1407" d="M1372 1067H1298Q1287 1166 1242 1242T1133 1329Q1075 1339 963 1339H752L623 776H770Q849 776 901 798T998 880T1071 1016H1147L1014 442H940V492Q940 554 927 603T870 673T752 694H602L508 281Q492 219 492 174Q492 119 530 101T696 82Q830 82 888 90T979 112T1060 178T1171 309T1257 430H1329L1202 0H-45L-31 70Q66 70 126 95T203 190L436 1202Q442 1230 442 1249Q442 1288 397 1314T264 1350L281 1419H1454L1372 1067ZM1028 1495L873 1568Q657 1664 629 1682T589 1718T577 1763Q577 1807 609 1836T692 1866Q734 1866 768 1844T839 1780L979 1624L1064 1536L1028 1495Z"  />
<glyph unicode="&#xC9;" horiz-adv-x="1407" d="M1372 1067H1298Q1287 1166 1242 1242T1133 1329Q1075 1339 963 1339H752L623 776H770Q849 776 901 798T998 880T1071 1016H1147L1014 442H940V492Q940 554 927 603T870 673T752 694H602L508 281Q492 219 492 174Q492 119 530 101T696 82Q830 82 888 90T979 112T1060 178T1171 309T1257 430H1329L1202 0H-45L-31 70Q66 70 126 95T203 190L436 1202Q442 1230 442 1249Q442 1288 397 1314T264 1350L281 1419H1454L1372 1067ZM1257 1782Q1257 1738 1230 1711T1157 1663L1001 1598L762 1495L731 1536L891 1683L1007 1800Q1070 1868 1142 1868Q1192 1868 1224 1844T1257 1782Z"  />
<glyph unicode="&#xCA;" horiz-adv-x="1407" d="M1372 1067H1298Q1287 1166 1242 1242T1133 1329Q1075 1339 963 1339H752L623 776H770Q849 776 901 798T998 880T1071 1016H1147L1014 442H940V492Q940 554 927 603T870 673T752 694H602L508 281Q492 219 492 174Q492 119 530 101T696 82Q830 82 888 90T979 112T1060 178T1171 309T1257 430H1329L1202 0H-45L-31 70Q66 70 126 95T203 190L436 1202Q442 1230 442 1249Q442 1288 397 1314T264 1350L281 1419H1454L1372 1067ZM1259 1526L1216 1495L944 1702L592 1495L553 1526L862 1831Q906 1868 969 1868Q1002 1868 1026 1858T1071 1819L1259 1526Z"  />
<glyph unicode="&#xCB;" horiz-adv-x="1407" d="M1372 1067H1298Q1287 1166 1242 1242T1133 1329Q1075 1339 963 1339H752L623 776H770Q849 776 901 798T998 880T1071 1016H1147L1014 442H940V492Q940 554 927 603T870 673T752 694H602L508 281Q492 219 492 174Q492 119 530 101T696 82Q830 82 888 90T979 112T1060 178T1171 309T1257 430H1329L1202 0H-45L-31 70Q66 70 126 95T203 190L436 1202Q442 1230 442 1249Q442 1288 397 1314T264 1350L281 1419H1454L1372 1067ZM1287 1716Q1287 1656 1246 1614T1149 1571Q1092 1571 1052 1614T1012 1716Q1012 1775 1052 1817T1149 1860Q1206 1860 1246 1818T1287 1716ZM795 1716Q795 1655 754 1613T656 1571Q601 1571 560 1612T519 1716Q519 1777 559 1818T656 1860Q712 1860 753 1818T795 1716Z"  />
<glyph unicode="&#xCC;" horiz-adv-x="860" d="M446 1249Q446 1288 400 1312T258 1350L274 1419H987L971 1350Q878 1343 835 1330T764 1290T727 1225L494 209Q487 188 487 166Q487 124 524 103T676 70L659 0H-51L-35 70Q65 70 127 94T205 188L436 1194L446 1249ZM816 1495L661 1568Q445 1664 417 1682T377 1718T365 1763Q365 1807 397 1836T480 1866Q522 1866 556 1844T627 1780L767 1624L852 1536L816 1495Z"  />
<glyph unicode="&#xCD;" horiz-adv-x="860" d="M446 1249Q446 1288 400 1312T258 1350L274 1419H987L971 1350Q878 1343 835 1330T764 1290T727 1225L494 209Q487 188 487 166Q487 124 524 103T676 70L659 0H-51L-35 70Q65 70 127 94T205 188L436 1194L446 1249ZM962 1782Q962 1738 935 1711T862 1663L706 1598L467 1495L436 1536L596 1683L712 1800Q775 1868 847 1868Q897 1868 929 1844T962 1782Z"  />
<glyph unicode="&#xCE;" horiz-adv-x="860" d="M446 1249Q446 1288 400 1312T258 1350L274 1419H987L971 1350Q878 1343 835 1330T764 1290T727 1225L494 209Q487 188 487 166Q487 124 524 103T676 70L659 0H-51L-35 70Q65 70 127 94T205 188L436 1194L446 1249ZM989 1526L946 1495L674 1702L322 1495L283 1526L592 1831Q636 1868 699 1868Q732 1868 756 1858T801 1819L989 1526Z"  />
<glyph unicode="&#xCF;" horiz-adv-x="860" d="M446 1249Q446 1288 400 1312T258 1350L274 1419H987L971 1350Q878 1343 835 1330T764 1290T727 1225L494 209Q487 188 487 166Q487 124 524 103T676 70L659 0H-51L-35 70Q65 70 127 94T205 188L436 1194L446 1249ZM1040 1714Q1040 1656 1000 1613T902 1570Q843 1570 803 1613T763 1714Q763 1774 804 1816T902 1859Q959 1859 999 1817T1040 1714ZM577 1714Q577 1656 537 1613T440 1570Q383 1570 342 1612T300 1714Q300 1775 341 1817T440 1859Q496 1859 536 1817T577 1714Z"  />
<glyph unicode="&#xD0;" horiz-adv-x="1620" d="M928 793L907 694H604L502 256Q492 206 492 190Q492 132 538 107T688 82Q856 82 990 182T1204 474T1284 889Q1284 1100 1180 1218T889 1337L750 1333L625 793H928ZM442 1245Q442 1289 400 1313T272 1350L289 1419H952Q1140 1419 1293 1349T1523 1155T1599 866Q1599 617 1477 421T1131 113T637 0H-41L-27 70Q70 70 127 94T203 188L319 694H129L152 793H342L434 1196L442 1245Z"  />
<glyph unicode="&#xD1;" horiz-adv-x="1634" d="M1253 -12H1126L528 1155L358 414Q332 293 332 227Q332 170 348 144T419 98T530 70L514 0H-82L-66 70Q-24 73 35 88T119 119Q159 147 188 210T248 403L403 1081Q416 1129 416 1171Q416 1230 391 1264T323 1319T213 1350L231 1419H696L1233 365L1382 1008Q1409 1116 1409 1192Q1409 1234 1400 1259T1372 1297T1308 1326T1210 1350L1227 1419H1821L1804 1350L1769 1345Q1690 1333 1639 1309T1556 1220T1493 1020L1253 -12ZM1489 1842Q1465 1773 1418 1710T1313 1610T1194 1573Q1134 1573 1090 1589T1007 1624T933 1660T854 1676Q829 1676 811 1665T775 1634T711 1538L647 1565Q699 1685 778 1760T938 1835Q991 1835 1035 1819T1117 1783T1189 1747T1259 1731Q1297 1731 1323 1742T1370 1777T1425 1868L1489 1842Z"  />
<glyph unicode="&#xD2;" horiz-adv-x="1587" d="M1569 872Q1569 626 1450 415T1127 83T688 -37Q515 -37 378 36T167 242T92 543Q92 788 210 999T534 1332T971 1454Q1144 1454 1281 1382T1493 1178T1569 872ZM1255 952Q1255 1153 1175 1259T950 1366Q801 1366 679 1252T482 921T406 469Q406 267 486 159T713 51Q863 51 985 167T1181 498T1255 952ZM1172 1495L1017 1568Q801 1664 773 1682T733 1718T721 1763Q721 1807 753 1836T836 1866Q878 1866 912 1844T983 1780L1123 1624L1208 1536L1172 1495Z"  />
<glyph unicode="&#xD3;" horiz-adv-x="1587" d="M1569 872Q1569 626 1450 415T1127 83T688 -37Q515 -37 378 36T167 242T92 543Q92 788 210 999T534 1332T971 1454Q1144 1454 1281 1382T1493 1178T1569 872ZM1255 952Q1255 1153 1175 1259T950 1366Q801 1366 679 1252T482 921T406 469Q406 267 486 159T713 51Q863 51 985 167T1181 498T1255 952ZM1356 1782Q1356 1738 1329 1711T1256 1663L1100 1598L861 1495L830 1536L990 1683L1106 1800Q1169 1868 1241 1868Q1291 1868 1323 1844T1356 1782Z"  />
<glyph unicode="&#xD4;" horiz-adv-x="1587" d="M1569 872Q1569 626 1450 415T1127 83T688 -37Q515 -37 378 36T167 242T92 543Q92 788 210 999T534 1332T971 1454Q1144 1454 1281 1382T1493 1178T1569 872ZM1255 952Q1255 1153 1175 1259T950 1366Q801 1366 679 1252T482 921T406 469Q406 267 486 159T713 51Q863 51 985 167T1181 498T1255 952ZM1312 1526L1269 1495L997 1702L645 1495L606 1526L915 1831Q959 1868 1022 1868Q1055 1868 1079 1858T1124 1819L1312 1526Z"  />
<glyph unicode="&#xD5;" horiz-adv-x="1587" d="M1569 872Q1569 626 1450 415T1127 83T688 -37Q515 -37 378 36T167 242T92 543Q92 788 210 999T534 1332T971 1454Q1144 1454 1281 1382T1493 1178T1569 872ZM1255 952Q1255 1153 1175 1259T950 1366Q801 1366 679 1252T482 921T406 469Q406 267 486 159T713 51Q863 51 985 167T1181 498T1255 952ZM1421 1842Q1397 1773 1350 1710T1245 1610T1126 1573Q1066 1573 1022 1589T939 1624T865 1660T786 1676Q761 1676 743 1665T707 1634T643 1538L579 1565Q631 1685 710 1760T870 1835Q923 1835 967 1819T1049 1783T1121 1747T1191 1731Q1229 1731 1255 1742T1302 1777T1357 1868L1421 1842Z"  />
<glyph unicode="&#xD6;" horiz-adv-x="1587" d="M1569 872Q1569 626 1450 415T1127 83T688 -37Q515 -37 378 36T167 242T92 543Q92 788 210 999T534 1332T971 1454Q1144 1454 1281 1382T1493 1178T1569 872ZM1255 952Q1255 1153 1175 1259T950 1366Q801 1366 679 1252T482 921T406 469Q406 267 486 159T713 51Q863 51 985 167T1181 498T1255 952ZM1371 1716Q1371 1656 1330 1614T1233 1571Q1176 1571 1136 1614T1096 1716Q1096 1775 1136 1817T1233 1860Q1290 1860 1330 1818T1371 1716ZM879 1716Q879 1655 838 1613T740 1571Q685 1571 644 1612T603 1716Q603 1777 643 1818T740 1860Q796 1860 837 1818T879 1716Z"  />
<glyph unicode="&#xD7;" horiz-adv-x="1378" d="M1083 94L711 467L340 92L238 195L612 567L238 938L340 1040L711 668L1083 1040L1186 938L811 567L1186 195L1083 94Z"  />
<glyph unicode="&#xD8;" horiz-adv-x="1602" d="M434 254Q506 51 713 51Q864 51 986 165T1184 492T1260 952Q1260 1027 1251 1077L434 254ZM1225 1171Q1151 1368 950 1368Q799 1368 676 1254T477 922T401 469Q401 398 410 348L1225 1171ZM227 164Q92 318 92 543Q92 788 210 999T534 1332T971 1454Q1208 1454 1368 1317L1518 1468L1583 1409L1432 1257Q1569 1101 1569 872Q1569 626 1450 415T1127 83T688 -37Q447 -37 287 104L119 -63L57 -4L227 164Z"  />
<glyph unicode="&#xD9;" horiz-adv-x="1626" d="M414 1247Q414 1292 368 1314T244 1350L262 1419H936L920 1350Q812 1342 763 1311T698 1225L524 479Q508 411 508 334Q508 211 580 148T795 84Q969 84 1092 191T1264 494L1384 1014Q1409 1121 1409 1200Q1409 1329 1208 1350L1225 1419H1821L1804 1350L1769 1345Q1664 1329 1622 1303T1548 1202T1493 1022L1374 504Q1313 239 1142 101T707 -37Q479 -37 349 56T219 313Q219 368 232 440T408 1204Q414 1230 414 1247ZM1209 1495L1054 1568Q838 1664 810 1682T770 1718T758 1763Q758 1807 790 1836T873 1866Q915 1866 949 1844T1020 1780L1160 1624L1245 1536L1209 1495Z"  />
<glyph unicode="&#xDA;" horiz-adv-x="1626" d="M414 1247Q414 1292 368 1314T244 1350L262 1419H936L920 1350Q812 1342 763 1311T698 1225L524 479Q508 411 508 334Q508 211 580 148T795 84Q969 84 1092 191T1264 494L1384 1014Q1409 1121 1409 1200Q1409 1329 1208 1350L1225 1419H1821L1804 1350L1769 1345Q1664 1329 1622 1303T1548 1202T1493 1022L1374 504Q1313 239 1142 101T707 -37Q479 -37 349 56T219 313Q219 368 232 440T408 1204Q414 1230 414 1247ZM1386 1782Q1386 1738 1359 1711T1286 1663L1130 1598L891 1495L860 1536L1020 1683L1136 1800Q1199 1868 1271 1868Q1321 1868 1353 1844T1386 1782Z"  />
<glyph unicode="&#xDB;" horiz-adv-x="1626" d="M414 1247Q414 1292 368 1314T244 1350L262 1419H936L920 1350Q812 1342 763 1311T698 1225L524 479Q508 411 508 334Q508 211 580 148T795 84Q969 84 1092 191T1264 494L1384 1014Q1409 1121 1409 1200Q1409 1329 1208 1350L1225 1419H1821L1804 1350L1769 1345Q1664 1329 1622 1303T1548 1202T1493 1022L1374 504Q1313 239 1142 101T707 -37Q479 -37 349 56T219 313Q219 368 232 440T408 1204Q414 1230 414 1247ZM1421 1526L1378 1495L1106 1702L754 1495L715 1526L1024 1831Q1068 1868 1131 1868Q1164 1868 1188 1858T1233 1819L1421 1526Z"  />
<glyph unicode="&#xDC;" horiz-adv-x="1626" d="M414 1247Q414 1292 368 1314T244 1350L262 1419H936L920 1350Q812 1342 763 1311T698 1225L524 479Q508 411 508 334Q508 211 580 148T795 84Q969 84 1092 191T1264 494L1384 1014Q1409 1121 1409 1200Q1409 1329 1208 1350L1225 1419H1821L1804 1350L1769 1345Q1664 1329 1622 1303T1548 1202T1493 1022L1374 504Q1313 239 1142 101T707 -37Q479 -37 349 56T219 313Q219 368 232 440T408 1204Q414 1230 414 1247ZM1483 1716Q1483 1656 1442 1614T1345 1571Q1288 1571 1248 1614T1208 1716Q1208 1775 1248 1817T1345 1860Q1402 1860 1442 1818T1483 1716ZM991 1716Q991 1655 950 1613T852 1571Q797 1571 756 1612T715 1716Q715 1777 755 1818T852 1860Q908 1860 949 1818T991 1716Z"  />
<glyph unicode="&#xDD;" horiz-adv-x="1378" d="M750 172Q750 125 800 99T944 70L928 0H201L217 70Q353 77 401 105T467 197L532 479Q545 531 545 549Q545 571 535 604T510 688Q408 1009 348 1176Q316 1261 269 1302T133 1350L150 1419H838L821 1350L760 1347Q621 1340 621 1292Q621 1272 667 1118T807 690Q1075 1006 1173 1132T1272 1284Q1272 1309 1242 1324T1104 1350L1122 1419H1642L1626 1350Q1577 1344 1536 1327T1454 1277T1345 1172T1193 1002T992 765T854 589T807 460T766 286T750 172ZM1266 1782Q1266 1738 1239 1711T1166 1663L1010 1598L771 1495L740 1536L900 1683L1016 1800Q1079 1868 1151 1868Q1201 1868 1233 1844T1266 1782Z"  />
<glyph unicode="&#xDE;" horiz-adv-x="1354" d="M1034 829Q1034 1053 786 1053H686L539 412H637Q823 412 928 523T1034 829ZM485 160Q485 117 522 96T662 70L645 0H-41L-25 70Q66 70 126 95T203 190L434 1204Q440 1232 440 1255Q440 1293 402 1314T270 1350L285 1419H967L950 1350Q872 1346 823 1329T752 1282T719 1195L705 1139H928Q1134 1139 1245 1060T1356 829Q1356 683 1274 570T1034 391T684 324H518L492 207Q485 184 485 160Z"  />
<glyph unicode="&#xDF;" horiz-adv-x="1227" d="M1239 1298Q1239 1203 1191 1127T1060 999T887 936L885 926Q1012 897 1085 808T1159 590Q1159 433 1084 295T877 74T598 -10Q489 -10 424 4L442 88Q506 76 532 76Q630 76 709 152T835 360T881 639Q881 753 831 820T678 887H653L674 973H711Q786 973 851 1015T956 1133T995 1311Q995 1388 959 1429T858 1470Q746 1470 676 1374T563 1073L348 59Q318 -78 234 -194T33 -377T-201 -444Q-316 -444 -374 -405T-432 -289Q-432 -234 -397 -198T-305 -162Q-203 -162 -136 -299L-104 -362Q14 -310 84 23L295 1012Q332 1189 404 1296T605 1476T889 1550Q1048 1550 1143 1481T1239 1298Z"  />
<glyph unicode="&#xE0;" horiz-adv-x="1262" d="M932 -18Q850 -18 795 21T727 127H719Q639 60 594 32T500 -13T397 -31Q240 -31 154 71T68 356Q68 525 147 676T363 920T657 1012Q733 1012 801 993T909 942L1155 995L1167 981L1011 316Q993 242 993 207Q993 150 1018 130T1104 109Q1159 109 1219 131L1202 55Q1121 21 1058 2T932 -18ZM858 762Q858 843 816 884T696 926Q607 926 526 845T398 629T350 352Q350 219 391 161T518 102Q614 102 731 219L858 762ZM877 1106Q763 1191 672 1253Q587 1310 556 1333T506 1382T486 1444Q486 1482 515 1512T588 1542Q634 1542 665 1522T731 1446L918 1141L877 1106Z"  />
<glyph unicode="&#xE1;" horiz-adv-x="1262" d="M932 -18Q850 -18 795 21T727 127H719Q639 60 594 32T500 -13T397 -31Q240 -31 154 71T68 356Q68 525 147 676T363 920T657 1012Q733 1012 801 993T909 942L1155 995L1167 981L1011 316Q993 242 993 207Q993 150 1018 130T1104 109Q1159 109 1219 131L1202 55Q1121 21 1058 2T932 -18ZM858 762Q858 843 816 884T696 926Q607 926 526 845T398 629T350 352Q350 219 391 161T518 102Q614 102 731 219L858 762ZM1031 1462Q1031 1429 1019 1406T972 1355T817 1253Q706 1184 592 1106L553 1141Q612 1218 686 1323L773 1446Q811 1502 844 1522T930 1542Q972 1542 1001 1518T1031 1462Z"  />
<glyph unicode="&#xE2;" horiz-adv-x="1262" d="M932 -18Q850 -18 795 21T727 127H719Q639 60 594 32T500 -13T397 -31Q240 -31 154 71T68 356Q68 525 147 676T363 920T657 1012Q733 1012 801 993T909 942L1155 995L1167 981L1011 316Q993 242 993 207Q993 150 1018 130T1104 109Q1159 109 1219 131L1202 55Q1121 21 1058 2T932 -18ZM858 762Q858 843 816 884T696 926Q607 926 526 845T398 629T350 352Q350 219 391 161T518 102Q614 102 731 219L858 762ZM1011 1110L759 1374L415 1110L368 1141Q401 1184 496 1298T663 1491Q688 1522 714 1533T786 1544Q825 1544 846 1536T886 1495Q893 1485 905 1462T934 1407T968 1339T1003 1266T1036 1197T1062 1141L1011 1110Z"  />
<glyph unicode="&#xE3;" horiz-adv-x="1262" d="M932 -18Q850 -18 795 21T727 127H719Q639 60 594 32T500 -13T397 -31Q240 -31 154 71T68 356Q68 525 147 676T363 920T657 1012Q733 1012 801 993T909 942L1155 995L1167 981L1011 316Q993 242 993 207Q993 150 1018 130T1104 109Q1159 109 1219 131L1202 55Q1121 21 1058 2T932 -18ZM858 762Q858 843 816 884T696 926Q607 926 526 845T398 629T350 352Q350 219 391 161T518 102Q614 102 731 219L858 762ZM1149 1475Q1125 1406 1078 1343T973 1243T854 1206Q794 1206 750 1222T667 1257T593 1293T514 1309Q489 1309 471 1298T435 1267T371 1171L307 1198Q359 1318 438 1393T598 1468Q651 1468 695 1452T777 1416T849 1380T919 1364Q957 1364 983 1375T1030 1410T1085 1501L1149 1475Z"  />
<glyph unicode="&#xE4;" horiz-adv-x="1262" d="M932 -18Q850 -18 795 21T727 127H719Q639 60 594 32T500 -13T397 -31Q240 -31 154 71T68 356Q68 525 147 676T363 920T657 1012Q733 1012 801 993T909 942L1155 995L1167 981L1011 316Q993 242 993 207Q993 150 1018 130T1104 109Q1159 109 1219 131L1202 55Q1121 21 1058 2T932 -18ZM858 762Q858 843 816 884T696 926Q607 926 526 845T398 629T350 352Q350 219 391 161T518 102Q614 102 731 219L858 762ZM1100 1356Q1100 1298 1060 1255T962 1212Q903 1212 863 1255T823 1356Q823 1416 864 1458T962 1501Q1019 1501 1059 1459T1100 1356ZM637 1356Q637 1298 597 1255T500 1212Q443 1212 402 1254T360 1356Q360 1417 401 1459T500 1501Q556 1501 596 1459T637 1356Z"  />
<glyph unicode="&#xE5;" horiz-adv-x="1262" d="M932 -18Q850 -18 795 21T727 127H719Q639 60 594 32T500 -13T397 -31Q240 -31 154 71T68 356Q68 525 147 676T363 920T657 1012Q733 1012 801 993T909 942L1155 995L1167 981L1011 316Q993 242 993 207Q993 150 1018 130T1104 109Q1159 109 1219 131L1202 55Q1121 21 1058 2T932 -18ZM858 762Q858 843 816 884T696 926Q607 926 526 845T398 629T350 352Q350 219 391 161T518 102Q614 102 731 219L858 762ZM1018 1374Q1018 1261 930 1185T705 1108Q595 1108 532 1159T469 1296Q469 1413 560 1488T783 1563Q889 1563 953 1512T1018 1374ZM879 1374Q879 1428 852 1462T770 1497Q698 1497 653 1439T608 1296Q608 1242 635 1208T719 1174Q789 1174 834 1230T879 1374Z"  />
<glyph unicode="&#xE6;" horiz-adv-x="1659" d="M1237 936Q1172 936 1111 879T1005 719T946 496Q1090 507 1179 543T1310 636T1352 788Q1352 860 1326 898T1237 936ZM1284 1012Q1440 1012 1525 957T1610 793Q1610 716 1573 657T1465 554T1261 473T942 418Q942 253 998 177T1167 100Q1270 100 1348 145T1509 295L1573 244Q1485 114 1356 42T1087 -31Q940 -31 848 23T715 166H707Q524 -29 281 -29Q168 -29 101 28T33 180Q33 296 101 377T327 510T622 585L715 600L726 649Q733 680 741 727T750 791Q750 860 713 898T614 936Q574 936 531 923T463 893L467 813Q467 732 423 691T295 649Q244 649 212 676T180 752Q180 818 245 877T420 974T639 1012Q757 1012 833 987T952 905Q1116 1012 1284 1012ZM688 248Q678 288 678 362Q678 442 692 514Q497 490 401 416T305 225Q305 163 340 134T426 104Q574 104 688 248Z"  />
<glyph unicode="&#xE7;" horiz-adv-x="1014" d="M997 782Q997 700 954 648T840 596Q781 596 743 626T705 700Q705 764 770 889Q759 909 728 922T651 936Q569 936 499 868T390 680T350 418Q350 263 411 183T580 102Q673 102 746 142T905 295L969 244Q888 118 761 44T500 -31Q297 -31 183 78T68 381Q68 549 144 696T357 928T670 1012Q830 1012 913 950T997 782ZM710 -225Q710 -336 604 -390T245 -444L262 -371Q394 -371 437 -362T506 -333T532 -276Q532 -245 500 -230T393 -215L442 16H524L499 -98Q600 -98 655 -132T710 -225Z"  />
<glyph unicode="&#xE8;" horiz-adv-x="1053" d="M1012 793Q1012 716 974 656T865 551T670 470T344 408Q349 100 569 100Q672 100 750 144T911 295L977 244Q891 117 761 43T489 -31Q289 -31 180 76T70 373Q70 544 151 693T372 927T686 1012Q842 1012 927 957T1012 793ZM756 793Q756 861 726 898T639 936Q574 936 512 878T407 714T348 483Q520 510 583 536T683 598T738 681T756 793ZM822 1106Q708 1191 617 1253Q532 1310 501 1333T451 1382T431 1444Q431 1482 460 1512T533 1542Q579 1542 610 1522T676 1446L863 1141L822 1106Z"  />
<glyph unicode="&#xE9;" horiz-adv-x="1053" d="M1012 793Q1012 716 974 656T865 551T670 470T344 408Q349 100 569 100Q672 100 750 144T911 295L977 244Q891 117 761 43T489 -31Q289 -31 180 76T70 373Q70 544 151 693T372 927T686 1012Q842 1012 927 957T1012 793ZM756 793Q756 861 726 898T639 936Q574 936 512 878T407 714T348 483Q520 510 583 536T683 598T738 681T756 793ZM955 1462Q955 1429 943 1406T896 1355T741 1253Q630 1184 516 1106L477 1141Q536 1218 610 1323L697 1446Q735 1502 768 1522T854 1542Q896 1542 925 1518T955 1462Z"  />
<glyph unicode="&#xEA;" horiz-adv-x="1053" d="M1012 793Q1012 716 974 656T865 551T670 470T344 408Q349 100 569 100Q672 100 750 144T911 295L977 244Q891 117 761 43T489 -31Q289 -31 180 76T70 373Q70 544 151 693T372 927T686 1012Q842 1012 927 957T1012 793ZM756 793Q756 861 726 898T639 936Q574 936 512 878T407 714T348 483Q520 510 583 536T683 598T738 681T756 793ZM950 1110L698 1374L354 1110L307 1141Q340 1184 435 1298T602 1491Q627 1522 653 1533T725 1544Q764 1544 785 1536T825 1495Q832 1485 844 1462T873 1407T907 1339T942 1266T975 1197T1001 1141L950 1110Z"  />
<glyph unicode="&#xEB;" horiz-adv-x="1053" d="M1012 793Q1012 716 974 656T865 551T670 470T344 408Q349 100 569 100Q672 100 750 144T911 295L977 244Q891 117 761 43T489 -31Q289 -31 180 76T70 373Q70 544 151 693T372 927T686 1012Q842 1012 927 957T1012 793ZM756 793Q756 861 726 898T639 936Q574 936 512 878T407 714T348 483Q520 510 583 536T683 598T738 681T756 793ZM1051 1356Q1051 1298 1011 1255T913 1212Q854 1212 814 1255T774 1356Q774 1416 815 1458T913 1501Q970 1501 1010 1459T1051 1356ZM588 1356Q588 1298 548 1255T451 1212Q394 1212 353 1254T311 1356Q311 1417 352 1459T451 1501Q507 1501 547 1459T588 1356Z"  />
<glyph unicode="&#xEC;" horiz-adv-x="678" d="M344 -25Q250 -25 195 23T139 152Q139 217 158 283L252 643Q276 751 276 788Q276 839 254 862T184 885Q138 885 55 860L74 938Q248 1012 340 1012Q442 1012 491 963T541 836Q541 772 518 684L428 346Q403 240 403 201Q403 144 429 123T516 102Q568 102 631 125L612 49Q531 15 466 -5T344 -25ZM562 1106Q448 1191 357 1253Q272 1310 241 1333T191 1382T171 1444Q171 1482 200 1512T273 1542Q319 1542 350 1522T416 1446L603 1141L562 1106Z"  />
<glyph unicode="&#xED;" horiz-adv-x="678" d="M344 -25Q250 -25 195 23T139 152Q139 217 158 283L252 643Q276 751 276 788Q276 839 254 862T184 885Q138 885 55 860L74 938Q248 1012 340 1012Q442 1012 491 963T541 836Q541 772 518 684L428 346Q403 240 403 201Q403 144 429 123T516 102Q568 102 631 125L612 49Q531 15 466 -5T344 -25ZM747 1462Q747 1429 735 1406T688 1355T533 1253Q422 1184 308 1106L269 1141Q328 1218 402 1323L489 1446Q527 1502 560 1522T646 1542Q688 1542 717 1518T747 1462Z"  />
<glyph unicode="&#xEE;" horiz-adv-x="678" d="M344 -25Q250 -25 195 23T139 152Q139 217 158 283L252 643Q276 751 276 788Q276 839 254 862T184 885Q138 885 55 860L74 938Q248 1012 340 1012Q442 1012 491 963T541 836Q541 772 518 684L428 346Q403 240 403 201Q403 144 429 123T516 102Q568 102 631 125L612 49Q531 15 466 -5T344 -25ZM675 1110L423 1374L79 1110L32 1141Q65 1184 160 1298T327 1491Q352 1522 378 1533T450 1544Q489 1544 510 1536T550 1495Q557 1485 569 1462T598 1407T632 1339T667 1266T700 1197T726 1141L675 1110Z"  />
<glyph unicode="&#xEF;" horiz-adv-x="678" d="M344 -25Q250 -25 195 23T139 152Q139 217 158 283L252 643Q276 751 276 788Q276 839 254 862T184 885Q138 885 55 860L74 938Q248 1012 340 1012Q442 1012 491 963T541 836Q541 772 518 684L428 346Q403 240 403 201Q403 144 429 123T516 102Q568 102 631 125L612 49Q531 15 466 -5T344 -25ZM806 1356Q806 1298 766 1255T668 1212Q609 1212 569 1255T529 1356Q529 1416 570 1458T668 1501Q725 1501 765 1459T806 1356ZM343 1356Q343 1298 303 1255T206 1212Q149 1212 108 1254T66 1356Q66 1417 107 1459T206 1501Q262 1501 302 1459T343 1356Z"  />
<glyph unicode="&#xF0;" horiz-adv-x="1210" d="M506 -31Q308 -31 188 82T68 383Q68 550 145 692T357 917T653 999Q741 999 808 964T907 868H913Q920 882 920 914T920 952Q920 1029 899 1115T838 1274L586 1137L543 1214L793 1348Q744 1422 659 1487L721 1552Q823 1498 915 1415L1141 1538L1186 1458L977 1352Q1171 1119 1171 827Q1171 587 1088 389T855 80T506 -31ZM866 666Q866 787 819 851T682 915Q585 915 510 842T391 624T346 313Q346 180 392 112T528 43Q619 43 695 126T818 360T866 666Z"  />
<glyph unicode="&#xF1;" horiz-adv-x="1311" d="M979 -16Q886 -16 830 30T774 158Q774 217 793 291L877 610Q901 706 901 745Q901 805 872 836T786 868Q730 868 663 833T526 727L360 0H102L246 631Q253 656 261 704T270 776Q270 832 251 852T170 872Q150 872 112 864T53 848L72 926Q244 999 340 999Q430 999 478 961T541 831H547Q667 931 756 971T946 1012Q1045 1012 1106 956T1167 807Q1167 736 1145 653L1065 352Q1040 266 1040 209Q1040 155 1063 133T1151 111Q1176 111 1210 118T1266 135L1247 57Q1166 25 1101 5T979 -16ZM1198 1475Q1174 1406 1127 1343T1022 1243T903 1206Q843 1206 799 1222T716 1257T642 1293T563 1309Q538 1309 520 1298T484 1267T420 1171L356 1198Q408 1318 487 1393T647 1468Q700 1468 744 1452T826 1416T898 1380T968 1364Q1006 1364 1032 1375T1079 1410T1134 1501L1198 1475Z"  />
<glyph unicode="&#xF2;" horiz-adv-x="1200" d="M1133 606Q1133 433 1051 285T822 52T492 -33Q299 -33 184 78T68 377Q68 554 150 701T376 931T700 1014Q902 1014 1017 905T1133 606ZM856 682Q856 810 811 874T680 938Q583 938 509 862T390 632T344 303Q344 43 522 43Q616 43 690 121T810 354T856 682ZM883 1106Q769 1191 678 1253Q593 1310 562 1333T512 1382T492 1444Q492 1482 521 1512T594 1542Q640 1542 671 1522T737 1446L924 1141L883 1106Z"  />
<glyph unicode="&#xF3;" horiz-adv-x="1200" d="M1133 606Q1133 433 1051 285T822 52T492 -33Q299 -33 184 78T68 377Q68 554 150 701T376 931T700 1014Q902 1014 1017 905T1133 606ZM856 682Q856 810 811 874T680 938Q583 938 509 862T390 632T344 303Q344 43 522 43Q616 43 690 121T810 354T856 682ZM1012 1462Q1012 1429 1000 1406T953 1355T798 1253Q687 1184 573 1106L534 1141Q593 1218 667 1323L754 1446Q792 1502 825 1522T911 1542Q953 1542 982 1518T1012 1462Z"  />
<glyph unicode="&#xF4;" horiz-adv-x="1200" d="M1133 606Q1133 433 1051 285T822 52T492 -33Q299 -33 184 78T68 377Q68 554 150 701T376 931T700 1014Q902 1014 1017 905T1133 606ZM856 682Q856 810 811 874T680 938Q583 938 509 862T390 632T344 303Q344 43 522 43Q616 43 690 121T810 354T856 682ZM1001 1110L749 1374L405 1110L358 1141Q391 1184 486 1298T653 1491Q678 1522 704 1533T776 1544Q815 1544 836 1536T876 1495Q883 1485 895 1462T924 1407T958 1339T993 1266T1026 1197T1052 1141L1001 1110Z"  />
<glyph unicode="&#xF5;" horiz-adv-x="1200" d="M1133 606Q1133 433 1051 285T822 52T492 -33Q299 -33 184 78T68 377Q68 554 150 701T376 931T700 1014Q902 1014 1017 905T1133 606ZM856 682Q856 810 811 874T680 938Q583 938 509 862T390 632T344 303Q344 43 522 43Q616 43 690 121T810 354T856 682ZM1149 1475Q1125 1406 1078 1343T973 1243T854 1206Q794 1206 750 1222T667 1257T593 1293T514 1309Q489 1309 471 1298T435 1267T371 1171L307 1198Q359 1318 438 1393T598 1468Q651 1468 695 1452T777 1416T849 1380T919 1364Q957 1364 983 1375T1030 1410T1085 1501L1149 1475Z"  />
<glyph unicode="&#xF6;" horiz-adv-x="1200" d="M1133 606Q1133 433 1051 285T822 52T492 -33Q299 -33 184 78T68 377Q68 554 150 701T376 931T700 1014Q902 1014 1017 905T1133 606ZM856 682Q856 810 811 874T680 938Q583 938 509 862T390 632T344 303Q344 43 522 43Q616 43 690 121T810 354T856 682ZM1108 1356Q1108 1298 1068 1255T970 1212Q911 1212 871 1255T831 1356Q831 1416 872 1458T970 1501Q1027 1501 1067 1459T1108 1356ZM645 1356Q645 1298 605 1255T508 1212Q451 1212 410 1254T368 1356Q368 1417 409 1459T508 1501Q564 1501 604 1459T645 1356Z"  />
<glyph unicode="&#xF7;" horiz-adv-x="1378" d="M858 973Q858 912 815 869T713 825Q653 825 610 869T567 973Q567 1033 608 1076T713 1120Q774 1120 816 1076T858 973ZM178 496V639H1247V496H178ZM858 160Q858 99 816 56T713 12Q651 12 609 55T567 160Q567 218 608 262T713 307Q775 307 816 263T858 160Z"  />
<glyph unicode="&#xF8;" horiz-adv-x="1200" d="M350 205Q378 43 522 43Q620 43 695 123T814 356T858 686L350 205ZM850 780Q818 938 680 938Q582 938 507 862T387 631T342 301L850 780ZM152 125Q68 223 68 377Q68 554 150 701T376 931T700 1014Q883 1014 993 915L1139 1053L1194 999L1049 862Q1133 757 1133 606Q1133 432 1051 285T822 53T492 -31Q323 -31 205 70L49 -78L-6 -25L152 125Z"  />
<glyph unicode="&#xF9;" horiz-adv-x="1290" d="M965 -18Q876 -18 820 27T754 150H748Q633 49 545 11T358 -27Q259 -27 200 28T141 178Q141 243 164 332L240 631Q264 739 264 776Q264 830 243 851T164 872Q142 872 105 864T47 848L66 926Q238 999 328 999Q426 999 478 953T530 825Q530 755 512 692L432 373Q410 289 410 240Q410 117 518 117Q572 117 636 149T768 246L938 983L1184 995L1196 981L1051 352Q1024 255 1024 209Q1024 152 1049 131T1135 109Q1162 109 1196 117T1249 133L1233 55Q1151 23 1086 3T965 -18ZM862 1106Q748 1191 657 1253Q572 1310 541 1333T491 1382T471 1444Q471 1482 500 1512T573 1542Q619 1542 650 1522T716 1446L903 1141L862 1106Z"  />
<glyph unicode="&#xFA;" horiz-adv-x="1290" d="M965 -18Q876 -18 820 27T754 150H748Q633 49 545 11T358 -27Q259 -27 200 28T141 178Q141 243 164 332L240 631Q264 739 264 776Q264 830 243 851T164 872Q142 872 105 864T47 848L66 926Q238 999 328 999Q426 999 478 953T530 825Q530 755 512 692L432 373Q410 289 410 240Q410 117 518 117Q572 117 636 149T768 246L938 983L1184 995L1196 981L1051 352Q1024 255 1024 209Q1024 152 1049 131T1135 109Q1162 109 1196 117T1249 133L1233 55Q1151 23 1086 3T965 -18ZM1031 1462Q1031 1429 1019 1406T972 1355T817 1253Q706 1184 592 1106L553 1141Q612 1218 686 1323L773 1446Q811 1502 844 1522T930 1542Q972 1542 1001 1518T1031 1462Z"  />
<glyph unicode="&#xFB;" horiz-adv-x="1290" d="M965 -18Q876 -18 820 27T754 150H748Q633 49 545 11T358 -27Q259 -27 200 28T141 178Q141 243 164 332L240 631Q264 739 264 776Q264 830 243 851T164 872Q142 872 105 864T47 848L66 926Q238 999 328 999Q426 999 478 953T530 825Q530 755 512 692L432 373Q410 289 410 240Q410 117 518 117Q572 117 636 149T768 246L938 983L1184 995L1196 981L1051 352Q1024 255 1024 209Q1024 152 1049 131T1135 109Q1162 109 1196 117T1249 133L1233 55Q1151 23 1086 3T965 -18ZM1011 1110L759 1374L415 1110L368 1141Q401 1184 496 1298T663 1491Q688 1522 714 1533T786 1544Q825 1544 846 1536T886 1495Q893 1485 905 1462T934 1407T968 1339T1003 1266T1036 1197T1062 1141L1011 1110Z"  />
<glyph unicode="&#xFC;" horiz-adv-x="1290" d="M965 -18Q876 -18 820 27T754 150H748Q633 49 545 11T358 -27Q259 -27 200 28T141 178Q141 243 164 332L240 631Q264 739 264 776Q264 830 243 851T164 872Q142 872 105 864T47 848L66 926Q238 999 328 999Q426 999 478 953T530 825Q530 755 512 692L432 373Q410 289 410 240Q410 117 518 117Q572 117 636 149T768 246L938 983L1184 995L1196 981L1051 352Q1024 255 1024 209Q1024 152 1049 131T1135 109Q1162 109 1196 117T1249 133L1233 55Q1151 23 1086 3T965 -18ZM1112 1356Q1112 1298 1072 1255T974 1212Q915 1212 875 1255T835 1356Q835 1416 876 1458T974 1501Q1031 1501 1071 1459T1112 1356ZM649 1356Q649 1298 609 1255T512 1212Q455 1212 414 1254T372 1356Q372 1417 413 1459T512 1501Q568 1501 608 1459T649 1356Z"  />
<glyph unicode="&#xFD;" horiz-adv-x="1257" d="M367 -442Q203 -442 118 -402T33 -274Q33 -219 68 -183T160 -147Q206 -147 240 -172T301 -235T373 -369Q460 -369 535 -309T668 -133T760 152H754Q647 58 556 19T362 -20Q263 -20 202 36T141 184Q141 249 168 352L240 631Q264 739 264 776Q264 831 243 851T164 872Q142 872 105 864T47 848L66 926Q238 999 328 999Q431 999 480 952T530 825Q530 753 510 680L432 379Q408 287 408 246Q408 187 438 154T524 121Q580 121 645 153T778 250L938 983L1182 995L1194 981L1022 182Q956 -120 789 -281T367 -442ZM1018 1462Q1018 1429 1006 1406T959 1355T804 1253Q693 1184 579 1106L540 1141Q599 1218 673 1323L760 1446Q798 1502 831 1522T917 1542Q959 1542 988 1518T1018 1462Z"  />
<glyph unicode="&#xFE;" horiz-adv-x="1229" d="M879 629Q879 760 834 820T700 881Q658 881 611 858T494 768L367 209Q369 169 392 131T452 72T541 51Q631 51 709 129T833 342T879 629ZM825 1012Q984 1012 1072 912T1161 629Q1161 455 1083 304T867 63T575 -27Q496 -27 438 -11T328 45L268 -217Q258 -257 258 -285Q258 -326 296 -348T440 -377L426 -444H-209L-195 -377Q-91 -372 -51 -347T2 -264L354 1280Q365 1324 365 1348Q365 1384 352 1404T314 1435T195 1456L211 1524L659 1548L670 1532L516 877H522Q671 1012 825 1012Z"  />
<glyph unicode="&#xFF;" horiz-adv-x="1257" d="M367 -442Q203 -442 118 -402T33 -274Q33 -219 68 -183T160 -147Q206 -147 240 -172T301 -235T373 -369Q460 -369 535 -309T668 -133T760 152H754Q647 58 556 19T362 -20Q263 -20 202 36T141 184Q141 249 168 352L240 631Q264 739 264 776Q264 831 243 851T164 872Q142 872 105 864T47 848L66 926Q238 999 328 999Q431 999 480 952T530 825Q530 753 510 680L432 379Q408 287 408 246Q408 187 438 154T524 121Q580 121 645 153T778 250L938 983L1182 995L1194 981L1022 182Q956 -120 789 -281T367 -442ZM1114 1356Q1114 1298 1074 1255T976 1212Q917 1212 877 1255T837 1356Q837 1416 878 1458T976 1501Q1033 1501 1073 1459T1114 1356ZM651 1356Q651 1298 611 1255T514 1212Q457 1212 416 1254T374 1356Q374 1417 415 1459T514 1501Q570 1501 610 1459T651 1356Z"  />
<glyph unicode="&#x100;" horiz-adv-x="1462" d="M1397 0H727L743 70Q950 87 950 139L944 199L899 485H406Q335 373 282 269T229 147Q229 115 283 94T418 70L403 0H-166L-152 70Q-57 74 10 116T133 246Q174 309 216 375T889 1440H1028L1229 209Q1251 80 1411 70L1397 0ZM795 1108L463 573H883L795 1108ZM585 1653L616 1798H1333L1302 1653H585Z"  />
<glyph unicode="&#x101;" horiz-adv-x="1262" d="M932 -18Q850 -18 795 21T727 127H719Q639 60 594 32T500 -13T397 -31Q240 -31 154 71T68 356Q68 525 147 676T363 920T657 1012Q733 1012 801 993T909 942L1155 995L1167 981L1011 316Q993 242 993 207Q993 150 1018 130T1104 109Q1159 109 1219 131L1202 55Q1121 21 1058 2T932 -18ZM858 762Q858 843 816 884T696 926Q607 926 526 845T398 629T350 352Q350 219 391 161T518 102Q614 102 731 219L858 762ZM372 1272L403 1417H1120L1089 1272H372Z"  />
<glyph unicode="&#x102;" horiz-adv-x="1462" d="M1397 0H727L743 70Q950 87 950 139L944 199L899 485H406Q335 373 282 269T229 147Q229 115 283 94T418 70L403 0H-166L-152 70Q-57 74 10 116T133 246Q174 309 216 375T889 1440H1028L1229 209Q1251 80 1411 70L1397 0ZM795 1108L463 573H883L795 1108ZM1343 1851Q1230 1530 948 1530Q818 1530 750 1605T682 1817V1851L747 1868Q759 1776 813 1733T979 1690Q1081 1690 1153 1730T1282 1868L1343 1851Z"  />
<glyph unicode="&#x103;" horiz-adv-x="1262" d="M932 -18Q850 -18 795 21T727 127H719Q639 60 594 32T500 -13T397 -31Q240 -31 154 71T68 356Q68 525 147 676T363 920T657 1012Q733 1012 801 993T909 942L1155 995L1167 981L1011 316Q993 242 993 207Q993 150 1018 130T1104 109Q1159 109 1219 131L1202 55Q1121 21 1058 2T932 -18ZM858 762Q858 843 816 884T696 926Q607 926 526 845T398 629T350 352Q350 219 391 161T518 102Q614 102 731 219L858 762ZM1081 1513Q960 1130 692 1130Q436 1130 436 1468L438 1513L501 1528Q513 1433 537 1386T604 1316T718 1292Q788 1292 839 1315T931 1384T1017 1528L1081 1513Z"  />
<glyph unicode="&#x104;" horiz-adv-x="1462" d="M1397 0H727L743 70Q950 87 950 139L944 199L899 485H406Q335 373 282 269T229 147Q229 115 283 94T418 70L403 0H-166L-152 70Q-57 74 10 116T133 246Q174 309 216 375T889 1440H1028L1229 209Q1251 80 1411 70L1397 0ZM795 1108L463 573H883L795 1108ZM1226 -444Q1026 -444 943 -406T860 -285Q860 -111 1163 39H1237Q1050 -111 1050 -254Q1050 -308 1093 -336T1241 -369L1226 -444Z"  />
<glyph unicode="&#x105;" horiz-adv-x="1262" d="M932 -18Q850 -18 795 21T727 127H719Q639 60 594 32T500 -13T397 -31Q240 -31 154 71T68 356Q68 525 147 676T363 920T657 1012Q733 1012 801 993T909 942L1155 995L1167 981L1011 316Q993 242 993 207Q993 150 1018 130T1104 109Q1159 109 1219 131L1202 55Q1121 21 1058 2T932 -18ZM858 762Q858 843 816 884T696 926Q607 926 526 845T398 629T350 352Q350 219 391 161T518 102Q614 102 731 219L858 762ZM1022 -444Q822 -444 739 -406T656 -285Q656 -111 959 39H1033Q846 -111 846 -254Q846 -308 889 -336T1037 -369L1022 -444Z"  />
<glyph unicode="&#x106;" horiz-adv-x="1389" d="M1337 356Q1104 -35 676 -35Q506 -35 372 37T165 241T92 543Q92 784 207 995T521 1330T954 1454Q1061 1454 1170 1429T1350 1358L1415 1419H1499L1389 907H1305Q1282 1147 1194 1257T954 1368Q807 1368 684 1263T484 961T408 537Q408 328 508 207T778 86Q915 86 1034 162T1264 401L1337 356ZM1290 1782Q1290 1738 1263 1711T1190 1663L1034 1598L795 1495L764 1536L924 1683L1040 1800Q1103 1868 1175 1868Q1225 1868 1257 1844T1290 1782Z"  />
<glyph unicode="&#x107;" horiz-adv-x="1014" d="M997 782Q997 700 954 648T840 596Q781 596 743 626T705 700Q705 764 770 889Q759 909 728 922T651 936Q569 936 499 868T390 680T350 418Q350 263 411 183T580 102Q673 102 746 142T905 295L969 244Q888 118 761 44T500 -31Q297 -31 183 78T68 381Q68 549 144 696T357 928T670 1012Q830 1012 913 950T997 782ZM951 1462Q951 1429 939 1406T892 1355T737 1253Q626 1184 512 1106L473 1141Q532 1218 606 1323L693 1446Q731 1502 764 1522T850 1542Q892 1542 921 1518T951 1462Z"  />
<glyph unicode="&#x108;" horiz-adv-x="1389" d="M1337 356Q1104 -35 676 -35Q506 -35 372 37T165 241T92 543Q92 784 207 995T521 1330T954 1454Q1061 1454 1170 1429T1350 1358L1415 1419H1499L1389 907H1305Q1282 1147 1194 1257T954 1368Q807 1368 684 1263T484 961T408 537Q408 328 508 207T778 86Q915 86 1034 162T1264 401L1337 356ZM1286 1526L1243 1495L971 1702L619 1495L580 1526L889 1831Q933 1868 996 1868Q1029 1868 1053 1858T1098 1819L1286 1526Z"  />
<glyph unicode="&#x109;" horiz-adv-x="1014" d="M997 782Q997 700 954 648T840 596Q781 596 743 626T705 700Q705 764 770 889Q759 909 728 922T651 936Q569 936 499 868T390 680T350 418Q350 263 411 183T580 102Q673 102 746 142T905 295L969 244Q888 118 761 44T500 -31Q297 -31 183 78T68 381Q68 549 144 696T357 928T670 1012Q830 1012 913 950T997 782ZM945 1110L693 1374L349 1110L302 1141Q335 1184 430 1298T597 1491Q622 1522 648 1533T720 1544Q759 1544 780 1536T820 1495Q827 1485 839 1462T868 1407T902 1339T937 1266T970 1197T996 1141L945 1110Z"  />
<glyph unicode="&#x10A;" horiz-adv-x="1389" d="M1337 356Q1104 -35 676 -35Q506 -35 372 37T165 241T92 543Q92 784 207 995T521 1330T954 1454Q1061 1454 1170 1429T1350 1358L1415 1419H1499L1389 907H1305Q1282 1147 1194 1257T954 1368Q807 1368 684 1263T484 961T408 537Q408 328 508 207T778 86Q915 86 1034 162T1264 401L1337 356ZM1098 1708Q1098 1645 1057 1600T950 1554Q888 1554 846 1597T803 1704Q803 1769 846 1812T950 1856Q1014 1856 1056 1814T1098 1708Z"  />
<glyph unicode="&#x10B;" horiz-adv-x="1014" d="M997 782Q997 700 954 648T840 596Q781 596 743 626T705 700Q705 764 770 889Q759 909 728 922T651 936Q569 936 499 868T390 680T350 418Q350 263 411 183T580 102Q673 102 746 142T905 295L969 244Q888 118 761 44T500 -31Q297 -31 183 78T68 381Q68 549 144 696T357 928T670 1012Q830 1012 913 950T997 782ZM829 1368Q829 1305 788 1260T681 1214Q619 1214 577 1257T534 1364Q534 1429 577 1472T681 1516Q745 1516 787 1474T829 1368Z"  />
<glyph unicode="&#x10C;" horiz-adv-x="1389" d="M1337 356Q1104 -35 676 -35Q506 -35 372 37T165 241T92 543Q92 784 207 995T521 1330T954 1454Q1061 1454 1170 1429T1350 1358L1415 1419H1499L1389 907H1305Q1282 1147 1194 1257T954 1368Q807 1368 684 1263T484 961T408 537Q408 328 508 207T778 86Q915 86 1034 162T1264 401L1337 356ZM1360 1837L1069 1550Q1033 1514 1010 1506T944 1497Q903 1497 882 1507T842 1546L655 1837L696 1868L968 1663L1321 1868L1360 1837Z"  />
<glyph unicode="&#x10D;" horiz-adv-x="1014" d="M997 782Q997 700 954 648T840 596Q781 596 743 626T705 700Q705 764 770 889Q759 909 728 922T651 936Q569 936 499 868T390 680T350 418Q350 263 411 183T580 102Q673 102 746 142T905 295L969 244Q888 118 761 44T500 -31Q297 -31 183 78T68 381Q68 549 144 696T357 928T670 1012Q830 1012 913 950T997 782ZM1063 1516Q860 1263 768 1163Q742 1133 715 1123T645 1112Q580 1112 558 1138T419 1410L368 1516L420 1546L670 1282L1014 1546L1063 1516Z"  />
<glyph unicode="&#x10E;" horiz-adv-x="1620" d="M1599 866Q1599 617 1477 421T1131 113T637 0H-41L-27 70Q70 70 128 94T203 188L434 1196L442 1245Q442 1289 400 1313T272 1350L289 1419H952Q1140 1419 1293 1349T1523 1155T1599 866ZM1284 889Q1284 1100 1180 1218T889 1337L750 1333L500 250Q492 207 492 190Q492 132 538 107T688 82Q856 82 990 182T1204 474T1284 889ZM1309 1837L1018 1550Q982 1514 959 1506T893 1497Q852 1497 831 1507T791 1546L604 1837L645 1868L917 1663L1270 1868L1309 1837Z"  />
<glyph unicode="&#x10F;" horiz-adv-x="1548" d="M999 188Q999 109 1110 109Q1165 109 1225 131L1206 55Q1037 -18 938 -18Q847 -18 797 22T735 131H727Q545 -31 397 -31Q240 -31 154 71T68 356Q68 527 147 680T361 922T651 1012Q727 1012 794 994T905 944L981 1278Q991 1318 991 1343Q991 1380 974 1401T923 1435T788 1456L805 1524L1286 1548L1298 1532L1024 350Q999 253 999 188ZM864 770Q861 841 814 885T690 930Q601 930 522 850T396 634T350 352Q350 219 391 161T518 102Q618 102 739 223L864 770ZM1731 1376Q1731 1239 1625 1115T1338 913L1309 981Q1449 1048 1510 1111T1596 1255H1547Q1478 1255 1439 1284T1399 1368Q1399 1434 1452 1485T1577 1536Q1649 1536 1690 1496T1731 1376Z"  />
<glyph unicode="&#x110;" horiz-adv-x="1620" d="M928 793L907 694H604L502 256Q492 206 492 190Q492 132 538 107T688 82Q856 82 990 182T1204 474T1284 889Q1284 1100 1180 1218T889 1337L750 1333L625 793H928ZM442 1245Q442 1289 400 1313T272 1350L289 1419H952Q1140 1419 1293 1349T1523 1155T1599 866Q1599 617 1477 421T1131 113T637 0H-41L-27 70Q70 70 127 94T203 188L319 694H129L152 793H342L434 1196L442 1245Z"  />
<glyph unicode="&#x111;" horiz-adv-x="1268" d="M864 766Q864 836 816 883T688 930Q597 930 519 850T396 635T350 352Q350 219 391 161T518 102Q618 102 739 223L864 766ZM1454 1249L1432 1161H1212L1024 350Q1021 335 1017 316T1009 277T1002 239T999 207Q999 150 1024 130T1110 109Q1165 109 1225 131L1206 55Q1037 -18 938 -18Q847 -18 797 22T735 131H727Q545 -31 397 -31Q240 -31 154 71T68 356Q68 527 147 680T361 922T651 1012Q809 1012 905 944L954 1161H580L600 1249H975Q991 1313 991 1343Q991 1380 974 1401T923 1435T788 1456L805 1524L1286 1548L1298 1532L1233 1249H1454Z"  />
<glyph unicode="&#x112;" horiz-adv-x="1407" d="M1372 1067H1298Q1287 1166 1242 1242T1133 1329Q1075 1339 963 1339H752L623 776H770Q849 776 901 798T998 880T1071 1016H1147L1014 442H940V492Q940 554 927 603T870 673T752 694H602L508 281Q492 219 492 174Q492 119 530 101T696 82Q830 82 888 90T979 112T1060 178T1171 309T1257 430H1329L1202 0H-45L-31 70Q66 70 126 95T203 190L436 1202Q442 1230 442 1249Q442 1288 397 1314T264 1350L281 1419H1454L1372 1067ZM569 1659L600 1804H1317L1286 1659H569Z"  />
<glyph unicode="&#x113;" horiz-adv-x="1053" d="M1012 793Q1012 716 974 656T865 551T670 470T344 408Q349 100 569 100Q672 100 750 144T911 295L977 244Q891 117 761 43T489 -31Q289 -31 180 76T70 373Q70 544 151 693T372 927T686 1012Q842 1012 927 957T1012 793ZM756 793Q756 861 726 898T639 936Q574 936 512 878T407 714T348 483Q520 510 583 536T683 598T738 681T756 793ZM321 1272L352 1417H1069L1038 1272H321Z"  />
<glyph unicode="&#x114;" horiz-adv-x="1407" d="M1372 1067H1298Q1287 1166 1242 1242T1133 1329Q1075 1339 963 1339H752L623 776H770Q849 776 901 798T998 880T1071 1016H1147L1014 442H940V492Q940 554 927 603T870 673T752 694H602L508 281Q492 219 492 174Q492 119 530 101T696 82Q830 82 888 90T979 112T1060 178T1171 309T1257 430H1329L1202 0H-45L-31 70Q66 70 126 95T203 190L436 1202Q442 1230 442 1249Q442 1288 397 1314T264 1350L281 1419H1454L1372 1067ZM1292 1851Q1179 1530 897 1530Q767 1530 699 1605T631 1817V1851L696 1868Q708 1776 762 1733T928 1690Q1030 1690 1102 1730T1231 1868L1292 1851Z"  />
<glyph unicode="&#x115;" horiz-adv-x="1053" d="M1012 793Q1012 716 974 656T865 551T670 470T344 408Q349 100 569 100Q672 100 750 144T911 295L977 244Q891 117 761 43T489 -31Q289 -31 180 76T70 373Q70 544 151 693T372 927T686 1012Q842 1012 927 957T1012 793ZM756 793Q756 861 726 898T639 936Q574 936 512 878T407 714T348 483Q520 510 583 536T683 598T738 681T756 793ZM1040 1513Q919 1130 651 1130Q395 1130 395 1468L397 1513L460 1528Q472 1433 496 1386T563 1316T677 1292Q747 1292 798 1315T890 1384T976 1528L1040 1513Z"  />
<glyph unicode="&#x116;" horiz-adv-x="1407" d="M1372 1067H1298Q1287 1166 1242 1242T1133 1329Q1075 1339 963 1339H752L623 776H770Q849 776 901 798T998 880T1071 1016H1147L1014 442H940V492Q940 554 927 603T870 673T752 694H602L508 281Q492 219 492 174Q492 119 530 101T696 82Q830 82 888 90T979 112T1060 178T1171 309T1257 430H1329L1202 0H-45L-31 70Q66 70 126 95T203 190L436 1202Q442 1230 442 1249Q442 1288 397 1314T264 1350L281 1419H1454L1372 1067ZM1073 1708Q1073 1645 1032 1600T925 1554Q863 1554 821 1597T778 1704Q778 1769 821 1812T925 1856Q989 1856 1031 1814T1073 1708Z"  />
<glyph unicode="&#x117;" horiz-adv-x="1053" d="M1012 793Q1012 716 974 656T865 551T670 470T344 408Q349 100 569 100Q672 100 750 144T911 295L977 244Q891 117 761 43T489 -31Q289 -31 180 76T70 373Q70 544 151 693T372 927T686 1012Q842 1012 927 957T1012 793ZM756 793Q756 861 726 898T639 936Q574 936 512 878T407 714T348 483Q520 510 583 536T683 598T738 681T756 793ZM837 1368Q837 1305 796 1260T689 1214Q627 1214 585 1257T542 1364Q542 1429 585 1472T689 1516Q753 1516 795 1474T837 1368Z"  />
<glyph unicode="&#x118;" horiz-adv-x="1407" d="M1372 1067H1298Q1287 1166 1242 1242T1133 1329Q1075 1339 963 1339H752L623 776H770Q849 776 901 798T998 880T1071 1016H1147L1014 442H940V492Q940 554 927 603T870 673T752 694H602L508 281Q492 219 492 174Q492 119 530 101T696 82Q830 82 888 90T979 112T1060 178T1171 309T1257 430H1329L1202 0H-45L-31 70Q66 70 126 95T203 190L436 1202Q442 1230 442 1249Q442 1288 397 1314T264 1350L281 1419H1454L1372 1067ZM1089 -444Q889 -444 806 -406T723 -285Q723 -111 1026 39H1100Q913 -111 913 -254Q913 -308 956 -336T1104 -369L1089 -444Z"  />
<glyph unicode="&#x119;" horiz-adv-x="1053" d="M1012 793Q1012 716 974 656T865 551T670 470T344 408Q349 100 569 100Q672 100 750 144T911 295L977 244Q891 117 761 43T489 -31Q289 -31 180 76T70 373Q70 544 151 693T372 927T686 1012Q842 1012 927 957T1012 793ZM756 793Q756 861 726 898T639 936Q574 936 512 878T407 714T348 483Q520 510 583 536T683 598T738 681T756 793ZM735 -444Q535 -444 452 -406T369 -285Q369 -111 672 39H746Q559 -111 559 -254Q559 -308 602 -336T750 -369L735 -444Z"  />
<glyph unicode="&#x11A;" horiz-adv-x="1407" d="M1372 1067H1298Q1287 1166 1242 1242T1133 1329Q1075 1339 963 1339H752L623 776H770Q849 776 901 798T998 880T1071 1016H1147L1014 442H940V492Q940 554 927 603T870 673T752 694H602L508 281Q492 219 492 174Q492 119 530 101T696 82Q830 82 888 90T979 112T1060 178T1171 309T1257 430H1329L1202 0H-45L-31 70Q66 70 126 95T203 190L436 1202Q442 1230 442 1249Q442 1288 397 1314T264 1350L281 1419H1454L1372 1067ZM1295 1837L1004 1550Q968 1514 945 1506T879 1497Q838 1497 817 1507T777 1546L590 1837L631 1868L903 1663L1256 1868L1295 1837Z"  />
<glyph unicode="&#x11B;" horiz-adv-x="1053" d="M1012 793Q1012 716 974 656T865 551T670 470T344 408Q349 100 569 100Q672 100 750 144T911 295L977 244Q891 117 761 43T489 -31Q289 -31 180 76T70 373Q70 544 151 693T372 927T686 1012Q842 1012 927 957T1012 793ZM756 793Q756 861 726 898T639 936Q574 936 512 878T407 714T348 483Q520 510 583 536T683 598T738 681T756 793ZM1063 1516Q860 1263 768 1163Q742 1133 715 1123T645 1112Q580 1112 558 1138T419 1410L368 1516L420 1546L670 1282L1014 1546L1063 1516Z"  />
<glyph unicode="&#x11C;" horiz-adv-x="1569" d="M696 -35Q520 -35 382 36T168 237T92 539Q92 792 209 1002T533 1333T989 1454Q1102 1454 1211 1428T1395 1358L1460 1419H1542L1434 911H1350Q1336 1144 1244 1256T977 1368Q816 1368 686 1253T482 938T408 508Q408 293 501 173T758 53Q827 53 886 71T1010 141L1069 377Q1085 439 1085 463Q1085 497 1067 518T1015 551T881 575L897 647H1593Q1583 613 1577 575Q1473 570 1421 538T1356 446L1323 301Q1291 177 1284 109Q1154 44 993 5T696 -35ZM1306 1526L1263 1495L991 1702L639 1495L600 1526L909 1831Q953 1868 1016 1868Q1049 1868 1073 1858T1118 1819L1306 1526Z"  />
<glyph unicode="&#x11D;" horiz-adv-x="1251" d="M864 766Q864 841 819 883T694 926Q604 926 524 848T397 635T350 358Q350 109 524 109Q561 109 596 122T665 157T752 227Q799 467 864 766ZM729 119L721 121Q627 44 548 12T399 -20Q241 -20 155 79T68 360Q68 536 149 687T366 925T655 1012Q735 1012 803 992T913 942L1159 995L1171 981L1001 180Q935 -132 774 -288T340 -444Q10 -444 10 -272Q10 -217 45 -181T137 -145Q191 -145 237 -187T319 -302L350 -369Q462 -356 532 -300T650 -140T729 119ZM1007 1110L755 1374L411 1110L364 1141Q397 1184 492 1298T659 1491Q684 1522 710 1533T782 1544Q821 1544 842 1536T882 1495Q889 1485 901 1462T930 1407T964 1339T999 1266T1032 1197T1058 1141L1007 1110Z"  />
<glyph unicode="&#x11E;" horiz-adv-x="1569" d="M696 -35Q520 -35 382 36T168 237T92 539Q92 792 209 1002T533 1333T989 1454Q1102 1454 1211 1428T1395 1358L1460 1419H1542L1434 911H1350Q1336 1144 1244 1256T977 1368Q816 1368 686 1253T482 938T408 508Q408 293 501 173T758 53Q827 53 886 71T1010 141L1069 377Q1085 439 1085 463Q1085 497 1067 518T1015 551T881 575L897 647H1593Q1583 613 1577 575Q1473 570 1421 538T1356 446L1323 301Q1291 177 1284 109Q1154 44 993 5T696 -35ZM1368 1851Q1255 1530 973 1530Q843 1530 775 1605T707 1817V1851L772 1868Q784 1776 838 1733T1004 1690Q1106 1690 1178 1730T1307 1868L1368 1851Z"  />
<glyph unicode="&#x11F;" horiz-adv-x="1251" d="M864 766Q864 841 819 883T694 926Q604 926 524 848T397 635T350 358Q350 109 524 109Q561 109 596 122T665 157T752 227Q799 467 864 766ZM729 119L721 121Q627 44 548 12T399 -20Q241 -20 155 79T68 360Q68 536 149 687T366 925T655 1012Q735 1012 803 992T913 942L1159 995L1171 981L1001 180Q935 -132 774 -288T340 -444Q10 -444 10 -272Q10 -217 45 -181T137 -145Q191 -145 237 -187T319 -302L350 -369Q462 -356 532 -300T650 -140T729 119ZM1083 1513Q962 1130 694 1130Q438 1130 438 1468L440 1513L503 1528Q515 1433 539 1386T606 1316T720 1292Q790 1292 841 1315T933 1384T1019 1528L1083 1513Z"  />
<glyph unicode="&#x120;" horiz-adv-x="1569" d="M696 -35Q520 -35 382 36T168 237T92 539Q92 792 209 1002T533 1333T989 1454Q1102 1454 1211 1428T1395 1358L1460 1419H1542L1434 911H1350Q1336 1144 1244 1256T977 1368Q816 1368 686 1253T482 938T408 508Q408 293 501 173T758 53Q827 53 886 71T1010 141L1069 377Q1085 439 1085 463Q1085 497 1067 518T1015 551T881 575L897 647H1593Q1583 613 1577 575Q1473 570 1421 538T1356 446L1323 301Q1291 177 1284 109Q1154 44 993 5T696 -35ZM1129 1708Q1129 1645 1088 1600T981 1554Q919 1554 877 1597T834 1704Q834 1769 877 1812T981 1856Q1045 1856 1087 1814T1129 1708Z"  />
<glyph unicode="&#x121;" horiz-adv-x="1251" d="M864 766Q864 841 819 883T694 926Q604 926 524 848T397 635T350 358Q350 109 524 109Q561 109 596 122T665 157T752 227Q799 467 864 766ZM729 119L721 121Q627 44 548 12T399 -20Q241 -20 155 79T68 360Q68 536 149 687T366 925T655 1012Q735 1012 803 992T913 942L1159 995L1171 981L1001 180Q935 -132 774 -288T340 -444Q10 -444 10 -272Q10 -217 45 -181T137 -145Q191 -145 237 -187T319 -302L350 -369Q462 -356 532 -300T650 -140T729 119ZM887 1368Q887 1305 846 1260T739 1214Q677 1214 635 1257T592 1364Q592 1429 635 1472T739 1516Q803 1516 845 1474T887 1368Z"  />
<glyph unicode="&#x122;" horiz-adv-x="1569" d="M696 -35Q520 -35 382 36T168 237T92 539Q92 792 209 1002T533 1333T989 1454Q1102 1454 1211 1428T1395 1358L1460 1419H1542L1434 911H1350Q1336 1144 1244 1256T977 1368Q816 1368 686 1253T482 938T408 508Q408 293 501 173T758 53Q827 53 886 71T1010 141L1069 377Q1085 439 1085 463Q1085 497 1067 518T1015 551T881 575L897 647H1593Q1583 613 1577 575Q1473 570 1421 538T1356 446L1323 301Q1291 177 1284 109Q1154 44 993 5T696 -35ZM744 -260H688Q619 -260 593 -239T566 -180Q566 -130 605 -98T709 -66Q775 -66 811 -104T848 -205Q848 -316 764 -380T529 -444L537 -383Q630 -377 678 -351T744 -260Z"  />
<glyph unicode="&#x123;" horiz-adv-x="1251" d="M864 766Q864 841 819 883T694 926Q604 926 524 848T397 635T350 358Q350 109 524 109Q561 109 596 122T665 157T752 227Q799 467 864 766ZM729 119L721 121Q627 44 548 12T399 -20Q241 -20 155 79T68 360Q68 536 149 687T366 925T655 1012Q735 1012 803 992T913 942L1159 995L1171 981L1001 180Q935 -132 774 -288T340 -444Q10 -444 10 -272Q10 -217 45 -181T137 -145Q191 -145 237 -187T319 -302L350 -369Q462 -356 532 -300T650 -140T729 119ZM706 1350H755Q890 1350 890 1243Q890 1191 854 1156T743 1120Q669 1120 627 1159T585 1274Q585 1393 680 1478T940 1579L929 1509Q825 1497 774 1459T706 1350Z"  />
<glyph unicode="&#x124;" horiz-adv-x="1769" d="M1399 164Q1399 80 1571 70L1554 0H877L893 70Q1013 76 1058 101T1118 188L1233 692H602L496 236Q485 188 485 178Q485 132 519 107T653 70L637 0H-39L-25 70Q80 70 133 96T203 188L436 1202Q442 1230 442 1247Q442 1329 270 1350L287 1419H965L948 1350Q835 1342 787 1311T725 1223L625 784H1255L1350 1192Q1356 1220 1356 1241Q1356 1281 1309 1310T1188 1350L1204 1419H1882L1866 1350Q1751 1342 1703 1311T1640 1223L1409 221Q1399 179 1399 164ZM1429 1526L1386 1495L1114 1702L762 1495L723 1526L1032 1831Q1076 1868 1139 1868Q1172 1868 1196 1858T1241 1819L1429 1526Z"  />
<glyph unicode="&#x125;" horiz-adv-x="1268" d="M936 -16Q844 -16 788 31T731 158Q731 226 750 291L834 610Q858 698 858 745Q858 805 829 836T743 868Q688 868 619 831T483 727L317 0H59L324 1149Q334 1193 334 1219Q334 1254 321 1274T282 1306T164 1327L180 1395L629 1419L641 1403L510 840H516Q641 941 726 976T903 1012Q1002 1012 1063 956T1124 807Q1124 739 1102 653L1022 352Q997 246 997 209Q997 152 1022 131T1108 109Q1129 109 1166 117T1223 133L1204 57Q1124 25 1059 5T936 -16ZM1096 1493L823 1702L473 1493L432 1524L725 1815Q753 1845 779 1856T850 1868Q885 1868 907 1859T950 1819L1139 1524L1096 1493Z"  />
<glyph unicode="&#x126;" horiz-adv-x="1769" d="M1401 162Q1401 79 1571 70L1554 0H877L893 70Q1013 76 1058 101T1118 188L1233 692H602L492 209Q485 188 485 166Q485 80 653 70L637 0H-39L-25 70Q80 70 133 96T203 188L391 1012H201L223 1102H414Q442 1229 442 1247Q442 1329 270 1350L287 1419H965L948 1350Q835 1342 787 1311T725 1223L696 1102H1329Q1356 1205 1356 1247Q1356 1289 1310 1314T1188 1350L1204 1419H1882L1866 1350Q1751 1342 1703 1311T1640 1223L1612 1102H1802L1782 1012H1591L1407 209Q1401 185 1401 162ZM625 784H1255L1309 1012H676L625 784Z"  />
<glyph unicode="&#x127;" horiz-adv-x="1268" d="M348 1249Q365 1319 365 1343Q365 1381 352 1403T310 1436T195 1456L211 1524L659 1548L672 1532L606 1249H958L936 1161H586L510 838H516Q636 936 723 973T903 1010Q1003 1010 1063 954T1124 805Q1124 732 1102 649L1022 352Q997 257 997 209Q997 152 1022 131T1108 109Q1129 109 1166 117T1223 133L1204 57Q1124 25 1059 5T936 -16Q842 -16 787 32T731 164Q731 218 760 328L834 606Q856 694 856 741Q856 799 829 832T743 866Q691 866 620 828T483 725L317 0H59L328 1161H88L111 1249H348Z"  />
<glyph unicode="&#x128;" horiz-adv-x="860" d="M446 1249Q446 1288 400 1312T258 1350L274 1419H987L971 1350Q878 1343 835 1330T764 1290T727 1225L494 209Q487 188 487 166Q487 124 524 103T676 70L659 0H-51L-35 70Q65 70 127 94T205 188L436 1194L446 1249ZM1087 1842Q1063 1773 1016 1710T911 1610T792 1573Q732 1573 688 1589T605 1624T531 1660T452 1676Q427 1676 409 1665T373 1634T309 1538L245 1565Q297 1685 376 1760T536 1835Q589 1835 633 1819T715 1783T787 1747T857 1731Q895 1731 921 1742T968 1777T1023 1868L1087 1842Z"  />
<glyph unicode="&#x129;" horiz-adv-x="678" d="M344 -25Q250 -25 195 23T139 152Q139 217 158 283L252 643Q276 751 276 788Q276 839 254 862T184 885Q138 885 55 860L74 938Q248 1012 340 1012Q442 1012 491 963T541 836Q541 772 518 684L428 346Q403 240 403 201Q403 144 429 123T516 102Q568 102 631 125L612 49Q531 15 466 -5T344 -25ZM827 1475Q803 1406 756 1343T651 1243T532 1206Q472 1206 428 1222T345 1257T271 1293T192 1309Q167 1309 149 1298T113 1267T49 1171L-15 1198Q37 1318 116 1393T276 1468Q329 1468 373 1452T455 1416T527 1380T597 1364Q635 1364 661 1375T708 1410T763 1501L827 1475Z"  />
<glyph unicode="&#x12A;" horiz-adv-x="860" d="M446 1249Q446 1288 400 1312T258 1350L274 1419H987L971 1350Q878 1343 835 1330T764 1290T727 1225L494 209Q487 188 487 166Q487 124 524 103T676 70L659 0H-51L-35 70Q65 70 127 94T205 188L436 1194L446 1249ZM306 1659L337 1804H1054L1023 1659H306Z"  />
<glyph unicode="&#x12B;" horiz-adv-x="678" d="M344 -25Q250 -25 195 23T139 152Q139 217 158 283L252 643Q276 751 276 788Q276 839 254 862T184 885Q138 885 55 860L74 938Q248 1012 340 1012Q442 1012 491 963T541 836Q541 772 518 684L428 346Q403 240 403 201Q403 144 429 123T516 102Q568 102 631 125L612 49Q531 15 466 -5T344 -25ZM35 1272L66 1417H783L752 1272H35Z"  />
<glyph unicode="&#x12E;" horiz-adv-x="860" d="M446 1249Q446 1288 400 1312T258 1350L274 1419H987L971 1350Q878 1343 835 1330T764 1290T727 1225L494 209Q487 188 487 166Q487 124 524 103T676 70L659 0H-51L-35 70Q65 70 127 94T205 188L436 1194L446 1249ZM490 -444Q290 -444 207 -406T124 -285Q124 -111 427 39H501Q314 -111 314 -254Q314 -308 357 -336T505 -369L490 -444Z"  />
<glyph unicode="&#x12F;" horiz-adv-x="678" d="M678 1374Q678 1306 630 1259T516 1212Q449 1212 402 1258T354 1370Q354 1438 402 1485T516 1532Q583 1532 630 1486T678 1374ZM344 -25Q250 -25 195 23T139 152Q139 217 158 283L252 643Q276 751 276 788Q276 847 253 866T174 885Q138 885 55 860L74 938Q248 1012 340 1012Q442 1012 491 963T541 836Q541 767 524 702L428 346Q403 260 403 201Q403 144 429 123T516 102Q568 102 631 125L612 49Q531 15 466 -5T344 -25ZM504 -444Q304 -444 221 -406T138 -285Q138 -111 441 39H515Q328 -111 328 -254Q328 -308 371 -336T519 -369L504 -444Z"  />
<glyph unicode="&#x130;" horiz-adv-x="860" d="M446 1249Q446 1288 400 1312T258 1350L274 1419H987L971 1350Q878 1343 835 1330T764 1290T727 1225L494 209Q487 188 487 166Q487 124 524 103T676 70L659 0H-51L-35 70Q65 70 127 94T205 188L436 1194L446 1249ZM810 1708Q810 1645 769 1600T662 1554Q600 1554 558 1597T515 1704Q515 1769 558 1812T662 1856Q726 1856 768 1814T810 1708Z"  />
<glyph unicode="&#x131;" horiz-adv-x="678" d="M344 -25Q250 -25 195 23T139 152Q139 217 158 283L252 643Q276 751 276 788Q276 839 254 862T184 885Q138 885 55 860L74 938Q248 1012 340 1012Q442 1012 491 963T541 836Q541 772 518 684L428 346Q403 240 403 201Q403 144 429 123T516 102Q568 102 631 125L612 49Q531 15 466 -5T344 -25Z"  />
<glyph unicode="&#x132;" horiz-adv-x="1919" d="M446 1249Q446 1288 400 1312T258 1350L274 1419H987L971 1350Q878 1343 835 1330T764 1290T727 1225L494 209Q487 188 487 166Q487 124 524 103T676 70L659 0H-51L-35 70Q65 70 127 94T205 188L436 1194L446 1249ZM1091 -37Q929 -37 831 43T733 262Q733 364 786 430T921 496Q990 496 1030 459T1071 358Q1071 317 1053 284T1010 221T959 164T917 109Q928 83 965 64T1056 45Q1168 45 1242 139T1362 432L1534 1192Q1542 1224 1542 1241Q1542 1321 1358 1350L1374 1419H2070L2056 1350Q1969 1344 1928 1330T1862 1290T1827 1223L1640 408Q1597 219 1442 91T1091 -37Z"  />
<glyph unicode="&#x133;" horiz-adv-x="1288" d="M678 1374Q678 1306 630 1259T516 1212Q449 1212 402 1258T354 1370Q354 1438 402 1485T516 1532Q583 1532 630 1486T678 1374ZM344 -25Q250 -25 195 23T139 152Q139 217 158 283L252 643Q276 751 276 788Q276 847 253 866T174 885Q138 885 55 860L74 938Q248 1012 340 1012Q442 1012 491 963T541 836Q541 767 524 702L428 346Q403 260 403 201Q403 144 429 123T516 102Q568 102 631 125L612 49Q531 15 466 -5T344 -25ZM1302 1374Q1302 1306 1254 1259T1140 1212Q1073 1212 1026 1258T978 1370Q978 1438 1026 1485T1140 1532Q1207 1532 1254 1486T1302 1374ZM1177 836Q1177 777 1139 571T1024 59Q987 -81 904 -197T709 -379T483 -444Q370 -444 312 -405T254 -289Q254 -233 289 -198T380 -162Q482 -162 549 -299L581 -362Q688 -299 759 23Q840 370 892 659Q911 759 911 799Q911 845 891 865T819 885Q763 885 682 858L700 936Q879 1012 976 1012Q1077 1012 1127 963T1177 836Z"  />
<glyph unicode="&#x134;" horiz-adv-x="1139" d="M311 -37Q149 -37 51 43T-47 262Q-47 364 6 430T141 496Q210 496 250 459T291 358Q291 317 273 284T230 221T179 164T137 109Q148 83 185 64T276 45Q388 45 462 139T582 432L754 1192Q762 1224 762 1241Q762 1321 578 1350L594 1419H1290L1276 1350Q1189 1344 1148 1330T1082 1290T1047 1223L860 408Q817 219 662 91T311 -37ZM1304 1526L1261 1495L989 1702L637 1495L598 1526L907 1831Q951 1868 1014 1868Q1047 1868 1071 1858T1116 1819L1304 1526Z"  />
<glyph unicode="&#x135;" horiz-adv-x="672" d="M561 836Q561 777 523 571T408 59Q371 -81 288 -197T93 -379T-133 -444Q-246 -444 -304 -405T-362 -289Q-362 -233 -327 -198T-236 -162Q-134 -162 -67 -299L-35 -362Q72 -299 143 23Q224 370 276 659Q295 759 295 799Q295 845 275 865T203 885Q147 885 66 858L84 936Q263 1012 360 1012Q461 1012 511 963T561 836ZM683 1110L431 1374L87 1110L40 1141Q73 1184 168 1298T335 1491Q360 1522 386 1533T458 1544Q497 1544 518 1536T558 1495Q565 1485 577 1462T606 1407T640 1339T675 1266T708 1197T734 1141L683 1110Z"  />
<glyph unicode="&#x136;" horiz-adv-x="1546" d="M485 166Q485 80 655 70L639 0H-37L-23 70Q81 70 135 97T203 188L436 1202Q442 1230 442 1247Q442 1292 398 1314T272 1350L289 1419H967L950 1350Q865 1343 826 1329T760 1289T725 1223L610 729H643Q881 899 1074 1076T1268 1309Q1268 1323 1240 1333T1130 1350Q1143 1393 1147 1419H1722L1706 1350L1647 1341Q1511 1321 1438 1264Q1311 1167 1075 962L889 805L978 662L1237 238Q1286 151 1344 113T1491 70L1473 0H1026Q969 129 898 260T655 664H596L492 209Q485 188 485 166ZM783 -260H727Q658 -260 632 -239T605 -180Q605 -130 644 -98T748 -66Q814 -66 850 -104T887 -205Q887 -316 803 -380T568 -444L576 -383Q669 -377 717 -351T783 -260Z"  />
<glyph unicode="&#x137;" horiz-adv-x="1196" d="M1184 877Q1184 817 1140 772T1034 727Q957 727 860 788Q794 746 763 721T682 649Q779 398 822 300T892 167T949 116T1026 100Q1074 100 1155 127L1137 49Q963 -23 858 -23Q767 -23 713 19T621 147Q572 250 526 380L496 463L403 381L317 0H59L354 1280Q365 1328 365 1343Q365 1381 352 1403T310 1436T195 1456L211 1524L659 1548L672 1532L428 492H434Q604 677 739 807T931 973T1049 1008Q1110 1008 1147 974T1184 877ZM571 -260H515Q446 -260 420 -239T393 -180Q393 -130 432 -98T536 -66Q602 -66 638 -104T675 -205Q675 -316 591 -380T356 -444L364 -383Q457 -377 505 -351T571 -260Z"  />
<glyph unicode="&#x139;" horiz-adv-x="1321" d="M442 1247Q442 1329 270 1350L287 1419H977L961 1350Q843 1341 792 1310T723 1221L504 268Q489 208 489 166Q489 115 526 98T700 80Q907 80 973 133Q1020 173 1087 253T1227 438H1296L1167 0H-39L-25 70Q72 70 129 96T203 188L436 1202Q442 1230 442 1247ZM1128 1782Q1128 1738 1101 1711T1028 1663L872 1598L633 1495L602 1536L762 1683L878 1800Q941 1868 1013 1868Q1063 1868 1095 1844T1128 1782Z"  />
<glyph unicode="&#x13A;" horiz-adv-x="653" d="M373 195Q373 147 400 125T489 102Q517 102 554 110T612 125L594 49Q422 -23 319 -23Q223 -23 166 24T109 152Q109 207 127 283L326 1151Q336 1195 336 1223Q336 1256 324 1275T290 1304T236 1319T168 1327L184 1395L633 1419L643 1403L399 346Q389 307 381 259T373 195ZM817 1782Q817 1746 804 1724T758 1682T629 1624Q458 1556 322 1495L291 1536Q391 1624 502 1737Q553 1790 584 1816T640 1853T702 1868Q753 1868 785 1844T817 1782Z"  />
<glyph unicode="&#x13B;" horiz-adv-x="1321" d="M442 1247Q442 1329 270 1350L287 1419H977L961 1350Q843 1341 792 1310T723 1221L504 268Q489 208 489 166Q489 115 526 98T700 80Q907 80 973 133Q1020 173 1087 253T1227 438H1296L1167 0H-39L-25 70Q72 70 129 96T203 188L436 1202Q442 1230 442 1247ZM711 -260H655Q586 -260 560 -239T533 -180Q533 -130 572 -98T676 -66Q742 -66 778 -104T815 -205Q815 -316 731 -380T496 -444L504 -383Q597 -377 645 -351T711 -260Z"  />
<glyph unicode="&#x13C;" horiz-adv-x="653" d="M373 201Q373 144 400 123T489 102Q517 102 554 110T612 125L594 49Q422 -23 319 -23Q223 -23 166 24T109 152Q109 207 127 283L356 1280Q367 1328 367 1348Q367 1383 354 1403T314 1435T197 1456L213 1524L662 1548L672 1532L399 346Q373 236 373 201ZM333 -260H277Q208 -260 182 -239T155 -180Q155 -130 194 -98T298 -66Q364 -66 400 -104T437 -205Q437 -316 353 -380T118 -444L126 -383Q219 -377 267 -351T333 -260Z"  />
<glyph unicode="&#x13D;" horiz-adv-x="1321" d="M442 1247Q442 1329 270 1350L287 1419H977L961 1350Q843 1341 792 1310T723 1221L504 268Q489 208 489 166Q489 115 526 98T700 80Q907 80 973 133Q1020 173 1087 253T1227 438H1296L1167 0H-39L-25 70Q72 70 129 96T203 188L436 1202Q442 1230 442 1247ZM1405 1275Q1405 1138 1299 1014T1012 812L983 880Q1123 947 1184 1010T1270 1154H1221Q1152 1154 1113 1183T1073 1267Q1073 1333 1126 1384T1251 1435Q1323 1435 1364 1395T1405 1275Z"  />
<glyph unicode="&#x13E;" horiz-adv-x="924" d="M373 201Q373 144 400 123T489 102Q517 102 554 110T612 125L594 49Q422 -23 319 -23Q223 -23 166 24T109 152Q109 207 127 283L356 1280Q367 1328 367 1348Q367 1383 354 1403T314 1435T197 1456L213 1524L662 1548L672 1532L399 346Q373 236 373 201ZM1104 1376Q1104 1239 998 1115T711 913L682 981Q822 1048 883 1111T969 1255H920Q851 1255 812 1284T772 1368Q772 1434 825 1485T950 1536Q1022 1536 1063 1496T1104 1376Z"  />
<glyph unicode="&#x13F;" horiz-adv-x="1321" d="M442 1247Q442 1329 270 1350L287 1419H977L961 1350Q843 1341 792 1310T723 1221L504 268Q489 208 489 166Q489 115 526 98T700 80Q907 80 973 133Q1020 173 1087 253T1227 438H1296L1167 0H-39L-25 70Q72 70 129 96T203 188L436 1202Q442 1230 442 1247ZM1164 743Q1164 676 1115 628T998 579Q927 579 879 628T830 743Q830 812 879 861T998 911Q1065 911 1114 862T1164 743Z"  />
<glyph unicode="&#x140;" horiz-adv-x="989" d="M373 201Q373 144 400 123T489 102Q517 102 554 110T612 125L594 49Q422 -23 319 -23Q223 -23 166 24T109 152Q109 207 127 283L356 1280Q367 1328 367 1348Q367 1383 354 1403T314 1435T197 1456L213 1524L662 1548L672 1532L399 346Q373 236 373 201ZM1000 669Q1000 602 951 554T834 505Q763 505 715 554T666 669Q666 738 715 787T834 837Q901 837 950 788T1000 669Z"  />
<glyph unicode="&#x141;" horiz-adv-x="1321" d="M301 614L123 547L100 637L326 723L436 1202Q442 1230 442 1247Q442 1329 270 1350L287 1419H977L961 1350Q870 1343 829 1329T761 1289T723 1221L637 844L920 952L942 862L610 735L504 268Q489 203 489 166Q489 115 526 98T700 80Q907 80 973 133Q1020 173 1087 253T1227 438H1296L1167 0H-39L-25 70Q72 70 129 96T203 188L301 614Z"  />
<glyph unicode="&#x142;" horiz-adv-x="653" d="M373 201Q373 144 400 123T489 102Q517 102 554 110T612 125L594 49Q422 -23 319 -23Q223 -23 166 24T109 152Q109 207 127 283L201 610L66 559L47 649L225 717L356 1280Q367 1328 367 1348Q367 1383 354 1403T314 1435T197 1456L213 1524L662 1548L672 1532L508 821L659 879L678 786L483 715L399 346Q373 236 373 201Z"  />
<glyph unicode="&#x143;" horiz-adv-x="1634" d="M1253 -12H1126L528 1155L358 414Q332 293 332 227Q332 170 348 144T419 98T530 70L514 0H-82L-66 70Q-24 73 35 88T119 119Q159 147 188 210T248 403L403 1081Q416 1129 416 1171Q416 1230 391 1264T323 1319T213 1350L231 1419H696L1233 365L1382 1008Q1409 1116 1409 1192Q1409 1234 1400 1259T1372 1297T1308 1326T1210 1350L1227 1419H1821L1804 1350L1769 1345Q1690 1333 1639 1309T1556 1220T1493 1020L1253 -12ZM1374 1782Q1374 1738 1347 1711T1274 1663L1118 1598L879 1495L848 1536L1008 1683L1124 1800Q1187 1868 1259 1868Q1309 1868 1341 1844T1374 1782Z"  />
<glyph unicode="&#x144;" horiz-adv-x="1311" d="M979 -16Q886 -16 830 30T774 158Q774 217 793 291L877 610Q901 706 901 745Q901 805 872 836T786 868Q730 868 663 833T526 727L360 0H102L246 631Q253 656 261 704T270 776Q270 832 251 852T170 872Q150 872 112 864T53 848L72 926Q244 999 340 999Q430 999 478 961T541 831H547Q667 931 756 971T946 1012Q1045 1012 1106 956T1167 807Q1167 736 1145 653L1065 352Q1040 266 1040 209Q1040 155 1063 133T1151 111Q1176 111 1210 118T1266 135L1247 57Q1166 25 1101 5T979 -16ZM1082 1462Q1082 1429 1070 1406T1023 1355T868 1253Q757 1184 643 1106L604 1141Q663 1218 737 1323L824 1446Q862 1502 895 1522T981 1542Q1023 1542 1052 1518T1082 1462Z"  />
<glyph unicode="&#x145;" horiz-adv-x="1634" d="M1253 -12H1126L528 1155L358 414Q332 293 332 227Q332 170 348 144T419 98T530 70L514 0H-82L-66 70Q-24 73 35 88T119 119Q159 147 188 210T248 403L403 1081Q416 1129 416 1171Q416 1230 391 1264T323 1319T213 1350L231 1419H696L1233 365L1382 1008Q1409 1116 1409 1192Q1409 1234 1400 1259T1372 1297T1308 1326T1210 1350L1227 1419H1821L1804 1350L1769 1345Q1690 1333 1639 1309T1556 1220T1493 1020L1253 -12ZM738 -260H682Q613 -260 587 -239T560 -180Q560 -130 599 -98T703 -66Q769 -66 805 -104T842 -205Q842 -316 758 -380T523 -444L531 -383Q624 -377 672 -351T738 -260Z"  />
<glyph unicode="&#x146;" horiz-adv-x="1311" d="M979 -16Q886 -16 830 30T774 158Q774 217 793 291L877 610Q901 706 901 745Q901 805 872 836T786 868Q730 868 663 833T526 727L360 0H102L246 631Q253 656 261 704T270 776Q270 832 251 852T170 872Q150 872 112 864T53 848L72 926Q244 999 340 999Q430 999 478 961T541 831H547Q667 931 756 971T946 1012Q1045 1012 1106 956T1167 807Q1167 736 1145 653L1065 352Q1040 266 1040 209Q1040 155 1063 133T1151 111Q1176 111 1210 118T1266 135L1247 57Q1166 25 1101 5T979 -16ZM654 -260H598Q529 -260 503 -239T476 -180Q476 -130 515 -98T619 -66Q685 -66 721 -104T758 -205Q758 -316 674 -380T439 -444L447 -383Q540 -377 588 -351T654 -260Z"  />
<glyph unicode="&#x147;" horiz-adv-x="1634" d="M1253 -12H1126L528 1155L358 414Q332 293 332 227Q332 170 348 144T419 98T530 70L514 0H-82L-66 70Q-24 73 35 88T119 119Q159 147 188 210T248 403L403 1081Q416 1129 416 1171Q416 1230 391 1264T323 1319T213 1350L231 1419H696L1233 365L1382 1008Q1409 1116 1409 1192Q1409 1234 1400 1259T1372 1297T1308 1326T1210 1350L1227 1419H1821L1804 1350L1769 1345Q1690 1333 1639 1309T1556 1220T1493 1020L1253 -12ZM1405 1837L1114 1550Q1078 1514 1055 1506T989 1497Q948 1497 927 1507T887 1546L700 1837L741 1868L1013 1663L1366 1868L1405 1837Z"  />
<glyph unicode="&#x148;" horiz-adv-x="1311" d="M979 -16Q886 -16 830 30T774 158Q774 217 793 291L877 610Q901 706 901 745Q901 805 872 836T786 868Q730 868 663 833T526 727L360 0H102L246 631Q253 656 261 704T270 776Q270 832 251 852T170 872Q150 872 112 864T53 848L72 926Q244 999 340 999Q430 999 478 961T541 831H547Q667 931 756 971T946 1012Q1045 1012 1106 956T1167 807Q1167 736 1145 653L1065 352Q1040 266 1040 209Q1040 155 1063 133T1151 111Q1176 111 1210 118T1266 135L1247 57Q1166 25 1101 5T979 -16ZM1125 1516Q922 1263 830 1163Q804 1133 777 1123T707 1112Q642 1112 620 1138T481 1410L430 1516L482 1546L732 1282L1076 1546L1125 1516Z"  />
<glyph unicode="&#x149;" horiz-adv-x="1495" d="M1163 -16Q1070 -16 1014 30T958 158Q958 217 977 291L1061 610Q1085 706 1085 745Q1085 805 1056 836T970 868Q914 868 847 833T710 727L544 0H286L430 631Q437 656 445 704T454 776Q454 832 435 852T354 872Q334 872 296 864T237 848L256 926Q428 999 524 999Q614 999 662 961T725 831H731Q851 931 940 971T1130 1012Q1229 1012 1290 956T1351 807Q1351 736 1329 653L1249 352Q1224 266 1224 209Q1224 155 1247 133T1335 111Q1360 111 1394 118T1450 135L1431 57Q1350 25 1285 5T1163 -16ZM460 1370Q460 1233 354 1109T67 907L38 975Q178 1042 239 1105T325 1249H276Q207 1249 168 1278T128 1362Q128 1428 181 1479T306 1530Q378 1530 419 1490T460 1370Z"  />
<glyph unicode="&#x14C;" horiz-adv-x="1587" d="M1569 872Q1569 626 1450 415T1127 83T688 -37Q515 -37 378 36T167 242T92 543Q92 788 210 999T534 1332T971 1454Q1144 1454 1281 1382T1493 1178T1569 872ZM1255 952Q1255 1153 1175 1259T950 1366Q801 1366 679 1252T482 921T406 469Q406 267 486 159T713 51Q863 51 985 167T1181 498T1255 952ZM626 1659L657 1804H1374L1343 1659H626Z"  />
<glyph unicode="&#x14D;" horiz-adv-x="1200" d="M1133 606Q1133 433 1051 285T822 52T492 -33Q299 -33 184 78T68 377Q68 554 150 701T376 931T700 1014Q902 1014 1017 905T1133 606ZM856 682Q856 810 811 874T680 938Q583 938 509 862T390 632T344 303Q344 43 522 43Q616 43 690 121T810 354T856 682ZM364 1272L395 1417H1112L1081 1272H364Z"  />
<glyph unicode="&#x14E;" horiz-adv-x="1587" d="M1569 872Q1569 626 1450 415T1127 83T688 -37Q515 -37 378 36T167 242T92 543Q92 788 210 999T534 1332T971 1454Q1144 1454 1281 1382T1493 1178T1569 872ZM1255 952Q1255 1153 1175 1259T950 1366Q801 1366 679 1252T482 921T406 469Q406 267 486 159T713 51Q863 51 985 167T1181 498T1255 952ZM1357 1851Q1244 1530 962 1530Q832 1530 764 1605T696 1817V1851L761 1868Q773 1776 827 1733T993 1690Q1095 1690 1167 1730T1296 1868L1357 1851Z"  />
<glyph unicode="&#x14F;" horiz-adv-x="1200" d="M1133 606Q1133 433 1051 285T822 52T492 -33Q299 -33 184 78T68 377Q68 554 150 701T376 931T700 1014Q902 1014 1017 905T1133 606ZM856 682Q856 810 811 874T680 938Q583 938 509 862T390 632T344 303Q344 43 522 43Q616 43 690 121T810 354T856 682ZM1079 1513Q958 1130 690 1130Q434 1130 434 1468L436 1513L499 1528Q511 1433 535 1386T602 1316T716 1292Q786 1292 837 1315T929 1384T1015 1528L1079 1513Z"  />
<glyph unicode="&#x150;" horiz-adv-x="1587" d="M1569 872Q1569 626 1450 415T1127 83T688 -37Q515 -37 378 36T167 242T92 543Q92 788 210 999T534 1332T971 1454Q1144 1454 1281 1382T1493 1178T1569 872ZM1255 952Q1255 1153 1175 1259T950 1366Q801 1366 679 1252T482 921T406 469Q406 267 486 159T713 51Q863 51 985 167T1181 498T1255 952ZM1122 1495L1097 1534L1183 1614Q1214 1643 1314 1746Q1430 1866 1497 1866Q1548 1866 1576 1844T1605 1784Q1605 1736 1573 1707T1419 1630Q1325 1594 1122 1495ZM1171 1782Q1171 1708 1069 1665Q933 1607 849 1571T688 1495L661 1534L913 1778Q942 1813 988 1839T1065 1866Q1117 1866 1144 1843T1171 1782Z"  />
<glyph unicode="&#x151;" horiz-adv-x="1200" d="M1133 606Q1133 433 1051 285T822 52T492 -33Q299 -33 184 78T68 377Q68 554 150 701T376 931T700 1014Q902 1014 1017 905T1133 606ZM856 682Q856 810 811 874T680 938Q583 938 509 862T390 632T344 303Q344 43 522 43Q616 43 690 121T810 354T856 682ZM1237 1470Q1237 1426 1197 1388T1014 1253Q917 1188 803 1102L772 1133Q862 1246 961 1388Q1026 1482 1063 1512T1155 1542Q1188 1542 1212 1521T1237 1470ZM848 1470Q848 1427 814 1392T632 1253Q541 1189 426 1102L391 1133Q500 1270 578 1387Q630 1466 654 1492T705 1530T768 1542Q802 1542 825 1521T848 1470Z"  />
<glyph unicode="&#x152;" horiz-adv-x="2152" d="M1221 1331Q1131 1337 1053 1337Q869 1337 721 1228T491 925T408 510Q408 311 511 197T797 82Q903 82 934 84L1221 1331ZM1358 694L1260 270Q1247 215 1247 170Q1247 118 1283 100T1444 82Q1586 82 1655 95T1757 133Q1804 172 1881 265T2003 430H2075L1948 0H723Q541 0 392 69T167 257T92 535Q92 778 208 973T536 1285T1008 1415L1137 1419H2200L2118 1067H2044Q2033 1167 1987 1243T1880 1329Q1822 1339 1710 1339H1507L1378 776H1516Q1602 776 1655 802T1749 889T1817 1016H1892L1759 442H1686Q1686 572 1670 613T1613 674T1497 694H1358Z"  />
<glyph unicode="&#x153;" horiz-adv-x="1800" d="M1757 793Q1757 633 1598 542T1090 408Q1095 100 1315 100Q1418 100 1498 145T1657 295L1722 244Q1637 116 1506 43T1235 -31Q1015 -31 899 117Q716 -33 492 -33Q299 -33 184 78T68 377Q68 554 150 701T376 931T700 1014Q920 1014 1042 860Q1222 1012 1432 1012Q1589 1012 1673 957T1757 793ZM1501 793Q1501 860 1472 898T1384 936Q1319 936 1257 878T1152 714T1094 483Q1263 509 1327 535T1428 598T1483 683T1501 793ZM856 682Q856 810 811 874T680 938Q583 938 509 862T390 632T344 303Q344 43 522 43Q616 43 690 121T810 354T856 682Z"  />
<glyph unicode="&#x154;" horiz-adv-x="1534" d="M1114 1122Q1114 1229 1049 1283T864 1337H750L612 727H731Q897 727 1005 837T1114 1122ZM485 164Q485 125 525 102T666 70L649 0H-41L-25 70Q71 70 129 97T203 190L436 1206Q442 1239 442 1249Q442 1286 396 1313T270 1350L287 1419H997Q1210 1419 1323 1349T1436 1145Q1436 977 1319 862T983 694L1229 246Q1281 149 1332 113T1481 70L1464 0H1026Q964 146 891 294T702 643H592L494 223Q485 191 485 164ZM1251 1782Q1251 1738 1224 1711T1151 1663L995 1598L756 1495L725 1536L885 1683L1001 1800Q1064 1868 1136 1868Q1186 1868 1218 1844T1251 1782Z"  />
<glyph unicode="&#x155;" horiz-adv-x="1018" d="M1030 825Q1030 738 984 683T862 627Q802 627 765 656T727 729Q727 766 741 803T776 887Q641 853 524 713L362 0H104L246 631Q254 659 262 708T270 782Q270 827 250 849T170 872Q150 872 112 864T53 848L72 926Q244 999 340 999Q432 999 479 960T541 825H547Q648 919 693 951T776 997T860 1012Q938 1012 984 967T1030 825ZM940 1462Q940 1429 928 1406T881 1355T726 1253Q615 1184 501 1106L462 1141Q521 1218 595 1323L682 1446Q720 1502 753 1522T839 1542Q881 1542 910 1518T940 1462Z"  />
<glyph unicode="&#x156;" horiz-adv-x="1534" d="M1114 1122Q1114 1229 1049 1283T864 1337H750L612 727H731Q897 727 1005 837T1114 1122ZM485 164Q485 125 525 102T666 70L649 0H-41L-25 70Q71 70 129 97T203 190L436 1206Q442 1239 442 1249Q442 1286 396 1313T270 1350L287 1419H997Q1210 1419 1323 1349T1436 1145Q1436 977 1319 862T983 694L1229 246Q1281 149 1332 113T1481 70L1464 0H1026Q964 146 891 294T702 643H592L494 223Q485 191 485 164ZM791 -260H735Q666 -260 640 -239T613 -180Q613 -130 652 -98T756 -66Q822 -66 858 -104T895 -205Q895 -316 811 -380T576 -444L584 -383Q677 -377 725 -351T791 -260Z"  />
<glyph unicode="&#x157;" horiz-adv-x="1018" d="M1030 825Q1030 738 984 683T862 627Q802 627 765 656T727 729Q727 766 741 803T776 887Q641 853 524 713L362 0H104L246 631Q254 659 262 708T270 782Q270 827 250 849T170 872Q150 872 112 864T53 848L72 926Q244 999 340 999Q432 999 479 960T541 825H547Q648 919 693 951T776 997T860 1012Q938 1012 984 967T1030 825ZM255 -260H199Q130 -260 104 -239T77 -180Q77 -130 116 -98T220 -66Q286 -66 322 -104T359 -205Q359 -316 275 -380T40 -444L48 -383Q141 -377 189 -351T255 -260Z"  />
<glyph unicode="&#x158;" horiz-adv-x="1534" d="M1114 1122Q1114 1229 1049 1283T864 1337H750L612 727H731Q897 727 1005 837T1114 1122ZM485 164Q485 125 525 102T666 70L649 0H-41L-25 70Q71 70 129 97T203 190L436 1206Q442 1239 442 1249Q442 1286 396 1313T270 1350L287 1419H997Q1210 1419 1323 1349T1436 1145Q1436 977 1319 862T983 694L1229 246Q1281 149 1332 113T1481 70L1464 0H1026Q964 146 891 294T702 643H592L494 223Q485 191 485 164ZM1276 1837L985 1550Q949 1514 926 1506T860 1497Q819 1497 798 1507T758 1546L571 1837L612 1868L884 1663L1237 1868L1276 1837Z"  />
<glyph unicode="&#x159;" horiz-adv-x="1018" d="M1030 825Q1030 738 984 683T862 627Q802 627 765 656T727 729Q727 766 741 803T776 887Q641 853 524 713L362 0H104L246 631Q254 659 262 708T270 782Q270 827 250 849T170 872Q150 872 112 864T53 848L72 926Q244 999 340 999Q432 999 479 960T541 825H547Q648 919 693 951T776 997T860 1012Q938 1012 984 967T1030 825ZM964 1516Q761 1263 669 1163Q643 1133 616 1123T546 1112Q481 1112 459 1138T320 1410L269 1516L321 1546L571 1282L915 1546L964 1516Z"  />
<glyph unicode="&#x15A;" d="M535 -33Q418 -33 311 -6T129 70L57 0H-25L76 498H160Q181 288 284 173T553 57Q699 57 788 135T877 344Q877 499 696 567L558 619Q394 678 334 728T241 847T209 991Q209 1184 372 1318T772 1452Q982 1452 1137 1356L1200 1419H1284L1182 942H1100Q1083 1103 1045 1187T938 1316T766 1362Q645 1362 564 1289T483 1106Q483 1019 533 965T692 870L804 829Q1000 757 1078 673T1157 465Q1157 251 981 109T535 -33ZM1171 1782Q1171 1738 1144 1711T1071 1663L915 1598L676 1495L645 1536L805 1683L921 1800Q984 1868 1056 1868Q1106 1868 1138 1844T1171 1782Z"  />
<glyph unicode="&#x15B;" horiz-adv-x="971" d="M391 770Q391 729 405 702T454 654T596 592Q745 536 803 470T862 311Q862 155 734 62T397 -31Q225 -31 119 23T12 168Q12 222 49 258T143 295Q203 295 246 252T312 135L334 63Q376 49 418 49Q510 49 563 97T616 231Q616 279 579 315T467 381Q302 448 250 486T172 575T145 690Q145 778 202 853T362 970T594 1012Q754 1012 842 966T930 836Q930 784 894 749T805 713Q747 713 706 753T643 866L621 934Q598 936 592 936Q502 936 447 889T391 770ZM913 1462Q913 1429 901 1406T854 1355T699 1253Q588 1184 474 1106L435 1141Q494 1218 568 1323L655 1446Q693 1502 726 1522T812 1542Q854 1542 883 1518T913 1462Z"  />
<glyph unicode="&#x15C;" d="M535 -33Q418 -33 311 -6T129 70L57 0H-25L76 498H160Q181 288 284 173T553 57Q699 57 788 135T877 344Q877 499 696 567L558 619Q394 678 334 728T241 847T209 991Q209 1184 372 1318T772 1452Q982 1452 1137 1356L1200 1419H1284L1182 942H1100Q1083 1103 1045 1187T938 1316T766 1362Q645 1362 564 1289T483 1106Q483 1019 533 965T692 870L804 829Q1000 757 1078 673T1157 465Q1157 251 981 109T535 -33ZM1134 1526L1091 1495L819 1702L467 1495L428 1526L737 1831Q781 1868 844 1868Q877 1868 901 1858T946 1819L1134 1526Z"  />
<glyph unicode="&#x15D;" horiz-adv-x="971" d="M391 770Q391 729 405 702T454 654T596 592Q745 536 803 470T862 311Q862 155 734 62T397 -31Q225 -31 119 23T12 168Q12 222 49 258T143 295Q203 295 246 252T312 135L334 63Q376 49 418 49Q510 49 563 97T616 231Q616 279 579 315T467 381Q302 448 250 486T172 575T145 690Q145 778 202 853T362 970T594 1012Q754 1012 842 966T930 836Q930 784 894 749T805 713Q747 713 706 753T643 866L621 934Q598 936 592 936Q502 936 447 889T391 770ZM879 1110L627 1374L283 1110L236 1141Q269 1184 364 1298T531 1491Q556 1522 582 1533T654 1544Q693 1544 714 1536T754 1495Q761 1485 773 1462T802 1407T836 1339T871 1266T904 1197T930 1141L879 1110Z"  />
<glyph unicode="&#x15E;" d="M535 -33Q418 -33 311 -6T129 70L57 0H-25L76 498H160Q181 288 284 173T553 57Q699 57 788 135T877 344Q877 499 696 567L558 619Q394 678 334 728T241 847T209 991Q209 1184 372 1318T772 1452Q982 1452 1137 1356L1200 1419H1284L1182 942H1100Q1083 1103 1045 1187T938 1316T766 1362Q645 1362 564 1289T483 1106Q483 1019 533 965T692 870L804 829Q1000 757 1078 673T1157 465Q1157 251 981 109T535 -33ZM768 -225Q768 -336 662 -390T303 -444L320 -371Q452 -371 495 -362T564 -333T590 -276Q590 -245 558 -230T451 -215L500 16H582L557 -98Q658 -98 713 -132T768 -225Z"  />
<glyph unicode="&#x15F;" horiz-adv-x="971" d="M391 770Q391 729 405 702T454 654T596 592Q745 536 803 470T862 311Q862 155 734 62T397 -31Q225 -31 119 23T12 168Q12 222 49 258T143 295Q203 295 246 252T312 135L334 63Q376 49 418 49Q510 49 563 97T616 231Q616 279 579 315T467 381Q302 448 250 486T172 575T145 690Q145 778 202 853T362 970T594 1012Q754 1012 842 966T930 836Q930 784 894 749T805 713Q747 713 706 753T643 866L621 934Q598 936 592 936Q502 936 447 889T391 770ZM648 -225Q648 -336 542 -390T183 -444L200 -371Q332 -371 375 -362T444 -333T470 -276Q470 -245 438 -230T331 -215L380 16H462L437 -98Q538 -98 593 -132T648 -225Z"  />
<glyph unicode="&#x160;" d="M535 -33Q418 -33 311 -6T129 70L57 0H-25L76 498H160Q181 288 284 173T553 57Q699 57 788 135T877 344Q877 499 696 567L558 619Q394 678 334 728T241 847T209 991Q209 1184 372 1318T772 1452Q982 1452 1137 1356L1200 1419H1284L1182 942H1100Q1083 1103 1045 1187T938 1316T766 1362Q645 1362 564 1289T483 1106Q483 1019 533 965T692 870L804 829Q1000 757 1078 673T1157 465Q1157 251 981 109T535 -33ZM1200 1837L909 1550Q873 1514 850 1506T784 1497Q743 1497 722 1507T682 1546L495 1837L536 1868L808 1663L1161 1868L1200 1837Z"  />
<glyph unicode="&#x161;" horiz-adv-x="971" d="M391 770Q391 729 405 702T454 654T596 592Q745 536 803 470T862 311Q862 155 734 62T397 -31Q225 -31 119 23T12 168Q12 222 49 258T143 295Q203 295 246 252T312 135L334 63Q376 49 418 49Q510 49 563 97T616 231Q616 279 579 315T467 381Q302 448 250 486T172 575T145 690Q145 778 202 853T362 970T594 1012Q754 1012 842 966T930 836Q930 784 894 749T805 713Q747 713 706 753T643 866L621 934Q598 936 592 936Q502 936 447 889T391 770ZM997 1516Q794 1263 702 1163Q676 1133 649 1123T579 1112Q514 1112 492 1138T353 1410L302 1516L354 1546L604 1282L948 1546L997 1516Z"  />
<glyph unicode="&#x162;" horiz-adv-x="1333" d="M729 170Q729 123 780 98T924 70L907 0H176L195 70Q297 76 341 89T411 128T446 197L711 1339H664Q574 1339 498 1331Q462 1326 408 1281T293 1160T199 1024H125L217 1419H1522L1432 1024H1358Q1352 1134 1310 1228T1210 1331Q1154 1339 1051 1339H995L735 215Q729 191 729 170ZM764 -225Q764 -336 658 -390T299 -444L316 -371Q448 -371 491 -362T560 -333T586 -276Q586 -245 554 -230T447 -215L496 16H578L553 -98Q654 -98 709 -132T764 -225Z"  />
<glyph unicode="&#x163;" horiz-adv-x="782" d="M401 201Q401 150 428 127T516 104Q546 104 601 113T682 133L664 51Q491 -23 354 -23Q249 -23 190 24T131 154Q131 185 136 223T182 438T287 877H106L129 973H313L385 1272H637L567 973H842L821 877H547Q401 289 401 201ZM529 -225Q529 -336 423 -390T64 -444L81 -371Q213 -371 256 -362T325 -333T351 -276Q351 -245 319 -230T212 -215L261 16H343L318 -98Q419 -98 474 -132T529 -225Z"  />
<glyph unicode="&#x164;" horiz-adv-x="1333" d="M729 170Q729 123 780 98T924 70L907 0H176L195 70Q297 76 341 89T411 128T446 197L711 1339H664Q574 1339 498 1331Q462 1326 408 1281T293 1160T199 1024H125L217 1419H1522L1432 1024H1358Q1352 1134 1310 1228T1210 1331Q1154 1339 1051 1339H995L735 215Q729 191 729 170ZM1284 1837L993 1550Q957 1514 934 1506T868 1497Q827 1497 806 1507T766 1546L579 1837L620 1868L892 1663L1245 1868L1284 1837Z"  />
<glyph unicode="&#x165;" horiz-adv-x="782" d="M719 1133Q815 1177 853 1202T915 1259T954 1331H911Q791 1331 791 1423Q791 1478 834 1518T938 1559Q1010 1559 1044 1523T1079 1427Q1079 1318 1001 1231T743 1069L719 1133ZM401 201Q401 150 428 127T516 104Q546 104 601 113T682 133L664 51Q491 -23 354 -23Q249 -23 190 24T131 154Q131 185 136 223T182 438T287 877H106L129 973H313L385 1272H637L567 973H842L821 877H547Q401 289 401 201Z"  />
<glyph unicode="&#x166;" horiz-adv-x="1333" d="M711 1339H664Q574 1339 498 1331Q462 1326 408 1281T293 1160T199 1024H125L217 1419H1522L1432 1024H1358Q1352 1134 1310 1228T1210 1331Q1154 1339 1051 1339H995L864 778H1171L1151 684H842L735 215Q729 191 729 170Q729 123 780 98T924 70L907 0H176L195 70Q296 76 340 89T410 128T446 197L559 684H250L272 778H580L711 1339Z"  />
<glyph unicode="&#x167;" horiz-adv-x="782" d="M401 207Q401 151 430 128T528 104Q552 104 603 113T682 133L664 51Q491 -23 354 -23Q246 -23 189 25T131 154Q131 217 147 285L193 481H25L47 567H213L287 877H106L129 973H313L385 1272H637L567 973H842L821 877H547L473 567H709L688 481H453Q413 295 407 258T401 207Z"  />
<glyph unicode="&#x168;" horiz-adv-x="1626" d="M414 1247Q414 1292 368 1314T244 1350L262 1419H936L920 1350Q812 1342 763 1311T698 1225L524 479Q508 411 508 334Q508 211 580 148T795 84Q969 84 1092 191T1264 494L1384 1014Q1409 1121 1409 1200Q1409 1329 1208 1350L1225 1419H1821L1804 1350L1769 1345Q1664 1329 1622 1303T1548 1202T1493 1022L1374 504Q1313 239 1142 101T707 -37Q479 -37 349 56T219 313Q219 368 232 440T408 1204Q414 1230 414 1247ZM1491 1842Q1467 1773 1420 1710T1315 1610T1196 1573Q1136 1573 1092 1589T1009 1624T935 1660T856 1676Q831 1676 813 1665T777 1634T713 1538L649 1565Q701 1685 780 1760T940 1835Q993 1835 1037 1819T1119 1783T1191 1747T1261 1731Q1299 1731 1325 1742T1372 1777T1427 1868L1491 1842Z"  />
<glyph unicode="&#x169;" horiz-adv-x="1290" d="M965 -18Q876 -18 820 27T754 150H748Q633 49 545 11T358 -27Q259 -27 200 28T141 178Q141 243 164 332L240 631Q264 739 264 776Q264 830 243 851T164 872Q142 872 105 864T47 848L66 926Q238 999 328 999Q426 999 478 953T530 825Q530 755 512 692L432 373Q410 289 410 240Q410 117 518 117Q572 117 636 149T768 246L938 983L1184 995L1196 981L1051 352Q1024 255 1024 209Q1024 152 1049 131T1135 109Q1162 109 1196 117T1249 133L1233 55Q1151 23 1086 3T965 -18ZM1168 1475Q1144 1406 1097 1343T992 1243T873 1206Q813 1206 769 1222T686 1257T612 1293T533 1309Q508 1309 490 1298T454 1267T390 1171L326 1198Q378 1318 457 1393T617 1468Q670 1468 714 1452T796 1416T868 1380T938 1364Q976 1364 1002 1375T1049 1410T1104 1501L1168 1475Z"  />
<glyph unicode="&#x16A;" horiz-adv-x="1626" d="M414 1247Q414 1292 368 1314T244 1350L262 1419H936L920 1350Q812 1342 763 1311T698 1225L524 479Q508 411 508 334Q508 211 580 148T795 84Q969 84 1092 191T1264 494L1384 1014Q1409 1121 1409 1200Q1409 1329 1208 1350L1225 1419H1821L1804 1350L1769 1345Q1664 1329 1622 1303T1548 1202T1493 1022L1374 504Q1313 239 1142 101T707 -37Q479 -37 349 56T219 313Q219 368 232 440T408 1204Q414 1230 414 1247ZM718 1659L749 1804H1466L1435 1659H718Z"  />
<glyph unicode="&#x16B;" horiz-adv-x="1290" d="M965 -18Q876 -18 820 27T754 150H748Q633 49 545 11T358 -27Q259 -27 200 28T141 178Q141 243 164 332L240 631Q264 739 264 776Q264 830 243 851T164 872Q142 872 105 864T47 848L66 926Q238 999 328 999Q426 999 478 953T530 825Q530 755 512 692L432 373Q410 289 410 240Q410 117 518 117Q572 117 636 149T768 246L938 983L1184 995L1196 981L1051 352Q1024 255 1024 209Q1024 152 1049 131T1135 109Q1162 109 1196 117T1249 133L1233 55Q1151 23 1086 3T965 -18ZM372 1272L403 1417H1120L1089 1272H372Z"  />
<glyph unicode="&#x16C;" horiz-adv-x="1626" d="M414 1247Q414 1292 368 1314T244 1350L262 1419H936L920 1350Q812 1342 763 1311T698 1225L524 479Q508 411 508 334Q508 211 580 148T795 84Q969 84 1092 191T1264 494L1384 1014Q1409 1121 1409 1200Q1409 1329 1208 1350L1225 1419H1821L1804 1350L1769 1345Q1664 1329 1622 1303T1548 1202T1493 1022L1374 504Q1313 239 1142 101T707 -37Q479 -37 349 56T219 313Q219 368 232 440T408 1204Q414 1230 414 1247ZM1427 1851Q1314 1530 1032 1530Q902 1530 834 1605T766 1817V1851L831 1868Q843 1776 897 1733T1063 1690Q1165 1690 1237 1730T1366 1868L1427 1851Z"  />
<glyph unicode="&#x16D;" horiz-adv-x="1290" d="M965 -18Q876 -18 820 27T754 150H748Q633 49 545 11T358 -27Q259 -27 200 28T141 178Q141 243 164 332L240 631Q264 739 264 776Q264 830 243 851T164 872Q142 872 105 864T47 848L66 926Q238 999 328 999Q426 999 478 953T530 825Q530 755 512 692L432 373Q410 289 410 240Q410 117 518 117Q572 117 636 149T768 246L938 983L1184 995L1196 981L1051 352Q1024 255 1024 209Q1024 152 1049 131T1135 109Q1162 109 1196 117T1249 133L1233 55Q1151 23 1086 3T965 -18ZM1085 1513Q964 1130 696 1130Q440 1130 440 1468L442 1513L505 1528Q517 1433 541 1386T608 1316T722 1292Q792 1292 843 1315T935 1384T1021 1528L1085 1513Z"  />
<glyph unicode="&#x16E;" horiz-adv-x="1626" d="M414 1247Q414 1292 368 1314T244 1350L262 1419H936L920 1350Q812 1342 763 1311T698 1225L524 479Q508 411 508 334Q508 211 580 148T795 84Q969 84 1092 191T1264 494L1384 1014Q1409 1121 1409 1200Q1409 1329 1208 1350L1225 1419H1821L1804 1350L1769 1345Q1664 1329 1622 1303T1548 1202T1493 1022L1374 504Q1313 239 1142 101T707 -37Q479 -37 349 56T219 313Q219 368 232 440T408 1204Q414 1230 414 1247ZM1384 1677Q1384 1564 1296 1488T1071 1411Q961 1411 898 1462T835 1599Q835 1716 926 1791T1149 1866Q1255 1866 1319 1815T1384 1677ZM1245 1677Q1245 1731 1218 1765T1136 1800Q1064 1800 1019 1742T974 1599Q974 1545 1001 1511T1085 1477Q1155 1477 1200 1533T1245 1677Z"  />
<glyph unicode="&#x16F;" horiz-adv-x="1290" d="M965 -18Q876 -18 820 27T754 150H748Q633 49 545 11T358 -27Q259 -27 200 28T141 178Q141 243 164 332L240 631Q264 739 264 776Q264 830 243 851T164 872Q142 872 105 864T47 848L66 926Q238 999 328 999Q426 999 478 953T530 825Q530 755 512 692L432 373Q410 289 410 240Q410 117 518 117Q572 117 636 149T768 246L938 983L1184 995L1196 981L1051 352Q1024 255 1024 209Q1024 152 1049 131T1135 109Q1162 109 1196 117T1249 133L1233 55Q1151 23 1086 3T965 -18ZM1014 1374Q1014 1261 926 1185T701 1108Q591 1108 528 1159T465 1296Q465 1413 556 1488T779 1563Q885 1563 949 1512T1014 1374ZM875 1374Q875 1428 848 1462T766 1497Q694 1497 649 1439T604 1296Q604 1242 631 1208T715 1174Q785 1174 830 1230T875 1374Z"  />
<glyph unicode="&#x170;" horiz-adv-x="1626" d="M414 1247Q414 1292 368 1314T244 1350L262 1419H936L920 1350Q812 1342 763 1311T698 1225L524 479Q508 411 508 334Q508 211 580 148T795 84Q969 84 1092 191T1264 494L1384 1014Q1409 1121 1409 1200Q1409 1329 1208 1350L1225 1419H1821L1804 1350L1769 1345Q1664 1329 1622 1303T1548 1202T1493 1022L1374 504Q1313 239 1142 101T707 -37Q479 -37 349 56T219 313Q219 368 232 440T408 1204Q414 1230 414 1247ZM1182 1495L1157 1534L1243 1614Q1274 1643 1374 1746Q1490 1866 1557 1866Q1608 1866 1636 1844T1665 1784Q1665 1736 1633 1707T1479 1630Q1385 1594 1182 1495ZM1231 1782Q1231 1708 1129 1665Q993 1607 909 1571T748 1495L721 1534L973 1778Q1002 1813 1048 1839T1125 1866Q1177 1866 1204 1843T1231 1782Z"  />
<glyph unicode="&#x171;" horiz-adv-x="1290" d="M965 -18Q876 -18 820 27T754 150H748Q633 49 545 11T358 -27Q259 -27 200 28T141 178Q141 243 164 332L240 631Q264 739 264 776Q264 830 243 851T164 872Q142 872 105 864T47 848L66 926Q238 999 328 999Q426 999 478 953T530 825Q530 755 512 692L432 373Q410 289 410 240Q410 117 518 117Q572 117 636 149T768 246L938 983L1184 995L1196 981L1051 352Q1024 255 1024 209Q1024 152 1049 131T1135 109Q1162 109 1196 117T1249 133L1233 55Q1151 23 1086 3T965 -18ZM1259 1470Q1259 1426 1219 1388T1036 1253Q939 1188 825 1102L794 1133Q884 1246 983 1388Q1048 1482 1085 1512T1177 1542Q1210 1542 1234 1521T1259 1470ZM870 1470Q870 1427 836 1392T654 1253Q563 1189 448 1102L413 1133Q522 1270 600 1387Q652 1466 676 1492T727 1530T790 1542Q824 1542 847 1521T870 1470Z"  />
<glyph unicode="&#x172;" horiz-adv-x="1626" d="M414 1247Q414 1292 368 1314T244 1350L262 1419H936L920 1350Q812 1342 763 1311T698 1225L524 479Q508 411 508 334Q508 211 580 148T795 84Q969 84 1092 191T1264 494L1384 1014Q1409 1121 1409 1200Q1409 1329 1208 1350L1225 1419H1821L1804 1350L1769 1345Q1664 1329 1622 1303T1548 1202T1493 1022L1374 504Q1313 239 1142 101T707 -37Q479 -37 349 56T219 313Q219 368 232 440T408 1204Q414 1230 414 1247ZM1030 -444Q830 -444 747 -406T664 -285Q664 -111 967 39H1041Q854 -111 854 -254Q854 -308 897 -336T1045 -369L1030 -444Z"  />
<glyph unicode="&#x173;" horiz-adv-x="1290" d="M965 -18Q876 -18 820 27T754 150H748Q633 49 545 11T358 -27Q259 -27 200 28T141 178Q141 243 164 332L240 631Q264 739 264 776Q264 830 243 851T164 872Q142 872 105 864T47 848L66 926Q238 999 328 999Q426 999 478 953T530 825Q530 755 512 692L432 373Q410 289 410 240Q410 117 518 117Q572 117 636 149T768 246L938 983L1184 995L1196 981L1051 352Q1024 255 1024 209Q1024 152 1049 131T1135 109Q1162 109 1196 117T1249 133L1233 55Q1151 23 1086 3T965 -18ZM1052 -444Q852 -444 769 -406T686 -285Q686 -111 989 39H1063Q876 -111 876 -254Q876 -308 919 -336T1067 -369L1052 -444Z"  />
<glyph unicode="&#x174;" horiz-adv-x="2152" d="M1452 -16H1303L1180 1059Q1030 790 878 519T582 -16H438L342 1196Q334 1264 288 1303T164 1350L180 1419H836L819 1350Q714 1339 668 1323T621 1272Q621 1237 628 1127T686 373L1266 1409H1417L1544 340Q1738 704 1852 923Q1950 1112 1980 1182T2011 1272Q2011 1302 1968 1321T1819 1350L1835 1419H2390L2374 1350Q2210 1333 2116 1176L1452 -16ZM1673 1526L1630 1495L1358 1702L1006 1495L967 1526L1276 1831Q1320 1868 1383 1868Q1416 1868 1440 1858T1485 1819L1673 1526Z"  />
<glyph unicode="&#x175;" horiz-adv-x="1798" d="M528 799Q528 710 468 517Q408 323 408 250Q408 178 441 146T526 113Q588 113 652 148T774 248Q826 527 938 983L1184 995L1196 981L1069 434Q1040 318 1040 262Q1040 100 1208 100Q1299 100 1383 160T1517 323T1567 543Q1567 588 1550 625T1497 700Q1461 738 1444 777T1427 864Q1427 929 1471 970T1581 1012Q1658 1012 1700 954T1743 760Q1743 555 1656 368T1422 75T1104 -31Q984 -31 899 23T784 176Q678 65 586 18T395 -29Q278 -29 211 41T143 227Q143 307 204 506Q264 705 264 776Q264 830 243 851T164 872Q142 872 105 864T47 848L66 926Q238 999 328 999Q528 999 528 799ZM1335 1110L1083 1374L739 1110L692 1141Q725 1184 820 1298T987 1491Q1012 1522 1038 1533T1110 1544Q1149 1544 1170 1536T1210 1495Q1217 1485 1229 1462T1258 1407T1292 1339T1327 1266T1360 1197T1386 1141L1335 1110Z"  />
<glyph unicode="&#x176;" horiz-adv-x="1378" d="M750 172Q750 125 800 99T944 70L928 0H201L217 70Q353 77 401 105T467 197L532 479Q545 531 545 549Q545 571 535 604T510 688Q408 1009 348 1176Q316 1261 269 1302T133 1350L150 1419H838L821 1350L760 1347Q621 1340 621 1292Q621 1272 667 1118T807 690Q1075 1006 1173 1132T1272 1284Q1272 1309 1242 1324T1104 1350L1122 1419H1642L1626 1350Q1577 1344 1536 1327T1454 1277T1345 1172T1193 1002T992 765T854 589T807 460T766 286T750 172ZM1292 1526L1249 1495L977 1702L625 1495L586 1526L895 1831Q939 1868 1002 1868Q1035 1868 1059 1858T1104 1819L1292 1526Z"  />
<glyph unicode="&#x177;" horiz-adv-x="1257" d="M367 -442Q203 -442 118 -402T33 -274Q33 -219 68 -183T160 -147Q206 -147 240 -172T301 -235T373 -369Q460 -369 535 -309T668 -133T760 152H754Q647 58 556 19T362 -20Q263 -20 202 36T141 184Q141 249 168 352L240 631Q264 739 264 776Q264 831 243 851T164 872Q142 872 105 864T47 848L66 926Q238 999 328 999Q431 999 480 952T530 825Q530 753 510 680L432 379Q408 287 408 246Q408 187 438 154T524 121Q580 121 645 153T778 250L938 983L1182 995L1194 981L1022 182Q956 -120 789 -281T367 -442ZM1009 1110L757 1374L413 1110L366 1141Q399 1184 494 1298T661 1491Q686 1522 712 1533T784 1544Q823 1544 844 1536T884 1495Q891 1485 903 1462T932 1407T966 1339T1001 1266T1034 1197T1060 1141L1009 1110Z"  />
<glyph unicode="&#x178;" horiz-adv-x="1378" d="M750 172Q750 125 800 99T944 70L928 0H201L217 70Q353 77 401 105T467 197L532 479Q545 531 545 549Q545 571 535 604T510 688Q408 1009 348 1176Q316 1261 269 1302T133 1350L150 1419H838L821 1350L760 1347Q621 1340 621 1292Q621 1272 667 1118T807 690Q1075 1006 1173 1132T1272 1284Q1272 1309 1242 1324T1104 1350L1122 1419H1642L1626 1350Q1577 1344 1536 1327T1454 1277T1345 1172T1193 1002T992 765T854 589T807 460T766 286T750 172ZM1383 1716Q1383 1656 1342 1614T1245 1571Q1188 1571 1148 1614T1108 1716Q1108 1775 1148 1817T1245 1860Q1302 1860 1342 1818T1383 1716ZM891 1716Q891 1655 850 1613T752 1571Q697 1571 656 1612T615 1716Q615 1777 655 1818T752 1860Q808 1860 849 1818T891 1716Z"  />
<glyph unicode="&#x179;" horiz-adv-x="1321" d="M1137 0H-94L-82 47L1098 1337H795Q664 1337 588 1308T443 1212T268 1001H193L332 1419H1475L1462 1370L285 80H614Q720 80 802 93T938 143T1061 257T1219 461H1290L1137 0ZM1225 1782Q1225 1738 1198 1711T1125 1663L969 1598L730 1495L699 1536L859 1683L975 1800Q1038 1868 1110 1868Q1160 1868 1192 1844T1225 1782Z"  />
<glyph unicode="&#x17A;" horiz-adv-x="983" d="M283 82H453Q553 82 627 86Q690 89 735 166T836 354H901L831 0H-27L-10 76L690 899H565Q490 899 437 896T344 877Q316 866 275 810T199 672H133L195 981H1008L995 915L283 82ZM917 1462Q917 1429 905 1406T858 1355T703 1253Q592 1184 478 1106L439 1141Q498 1218 572 1323L659 1446Q697 1502 730 1522T816 1542Q858 1542 887 1518T917 1462Z"  />
<glyph unicode="&#x17B;" horiz-adv-x="1321" d="M1137 0H-94L-82 47L1098 1337H795Q664 1337 588 1308T443 1212T268 1001H193L332 1419H1475L1462 1370L285 80H614Q720 80 802 93T938 143T1061 257T1219 461H1290L1137 0ZM1026 1708Q1026 1645 985 1600T878 1554Q816 1554 774 1597T731 1704Q731 1769 774 1812T878 1856Q942 1856 984 1814T1026 1708Z"  />
<glyph unicode="&#x17C;" horiz-adv-x="983" d="M283 82H453Q553 82 627 86Q690 89 735 166T836 354H901L831 0H-27L-10 76L690 899H565Q490 899 437 896T344 877Q316 866 275 810T199 672H133L195 981H1008L995 915L283 82ZM788 1368Q788 1305 747 1260T640 1214Q578 1214 536 1257T493 1364Q493 1429 536 1472T640 1516Q704 1516 746 1474T788 1368Z"  />
<glyph unicode="&#x17D;" horiz-adv-x="1321" d="M1137 0H-94L-82 47L1098 1337H795Q664 1337 588 1308T443 1212T268 1001H193L332 1419H1475L1462 1370L285 80H614Q720 80 802 93T938 143T1061 257T1219 461H1290L1137 0ZM1260 1837L969 1550Q933 1514 910 1506T844 1497Q803 1497 782 1507T742 1546L555 1837L596 1868L868 1663L1221 1868L1260 1837Z"  />
<glyph unicode="&#x17E;" horiz-adv-x="983" d="M283 82H453Q553 82 627 86Q690 89 735 166T836 354H901L831 0H-27L-10 76L690 899H565Q490 899 437 896T344 877Q316 866 275 810T199 672H133L195 981H1008L995 915L283 82ZM1011 1516Q808 1263 716 1163Q690 1133 663 1123T593 1112Q528 1112 506 1138T367 1410L316 1516L368 1546L618 1282L962 1546L1011 1516Z"  />
<glyph unicode="&#x192;" horiz-adv-x="1124" d="M1184 1155Q1184 1100 1150 1064T1061 1028Q1016 1028 985 1044T929 1093T864 1227Q796 1204 752 1104T676 831L657 733H934L909 631H643Q628 539 609 430T559 209T483 -6T369 -191T208 -320T-12 -369Q-113 -369 -170 -329T-227 -219Q-227 -167 -192 -132T-94 -96Q-55 -96 -24 -116T32 -173T88 -289Q161 -269 218 -117T362 526L381 631H164L186 733H395Q428 902 509 1034T708 1237T969 1309Q1068 1309 1126 1269T1184 1155Z"  />
<glyph unicode="&#x218;" d="M535 -33Q418 -33 311 -6T129 70L57 0H-25L76 498H160Q181 288 284 173T553 57Q699 57 788 135T877 344Q877 499 696 567L558 619Q394 678 334 728T241 847T209 991Q209 1184 372 1318T772 1452Q982 1452 1137 1356L1200 1419H1284L1182 942H1100Q1083 1103 1045 1187T938 1316T766 1362Q645 1362 564 1289T483 1106Q483 1019 533 965T692 870L804 829Q1000 757 1078 673T1157 465Q1157 251 981 109T535 -33ZM588 -260H532Q463 -260 437 -239T410 -180Q410 -130 449 -98T553 -66Q619 -66 655 -104T692 -205Q692 -316 608 -380T373 -444L381 -383Q474 -377 522 -351T588 -260Z"  />
<glyph unicode="&#x219;" horiz-adv-x="971" d="M391 770Q391 729 405 702T454 654T596 592Q745 536 803 470T862 311Q862 155 734 62T397 -31Q225 -31 119 23T12 168Q12 222 49 258T143 295Q203 295 246 252T312 135L334 63Q376 49 418 49Q510 49 563 97T616 231Q616 279 579 315T467 381Q302 448 250 486T172 575T145 690Q145 778 202 853T362 970T594 1012Q754 1012 842 966T930 836Q930 784 894 749T805 713Q747 713 706 753T643 866L621 934Q598 936 592 936Q502 936 447 889T391 770ZM464 -260H408Q339 -260 313 -239T286 -180Q286 -130 325 -98T429 -66Q495 -66 531 -104T568 -205Q568 -316 484 -380T249 -444L257 -383Q350 -377 398 -351T464 -260Z"  />
<glyph unicode="&#x21A;" horiz-adv-x="1333" d="M729 170Q729 123 780 98T924 70L907 0H176L195 70Q297 76 341 89T411 128T446 197L711 1339H664Q574 1339 498 1331Q462 1326 408 1281T293 1160T199 1024H125L217 1419H1522L1432 1024H1358Q1352 1134 1310 1228T1210 1331Q1154 1339 1051 1339H995L735 215Q729 191 729 170ZM588 -260H532Q463 -260 437 -239T410 -180Q410 -130 449 -98T553 -66Q619 -66 655 -104T692 -205Q692 -316 608 -380T373 -444L381 -383Q474 -377 522 -351T588 -260Z"  />
<glyph unicode="&#x21B;" horiz-adv-x="782" d="M401 201Q401 150 428 127T516 104Q546 104 601 113T682 133L664 51Q491 -23 354 -23Q249 -23 190 24T131 154Q131 185 136 223T182 438T287 877H106L129 973H313L385 1272H637L567 973H842L821 877H547Q401 289 401 201ZM407 -260H351Q282 -260 256 -239T229 -180Q229 -130 268 -98T372 -66Q438 -66 474 -104T511 -205Q511 -316 427 -380T192 -444L200 -383Q293 -377 341 -351T407 -260Z"  />
<glyph unicode="&#x237;" horiz-adv-x="672" d="M561 836Q561 777 523 571T408 59Q371 -81 288 -197T93 -379T-133 -444Q-246 -444 -304 -405T-362 -289Q-362 -233 -327 -198T-236 -162Q-134 -162 -67 -299L-35 -362Q72 -299 143 23Q224 370 276 659Q295 759 295 799Q295 845 275 865T203 885Q147 885 66 858L84 936Q263 1012 360 1012Q461 1012 511 963T561 836Z"  />
<glyph unicode="&#x2C6;" horiz-adv-x="1024" d="M950 1110L698 1374L354 1110L307 1141Q340 1184 435 1298T602 1491Q627 1522 653 1533T725 1544Q764 1544 785 1536T825 1495Q832 1485 844 1462T873 1407T907 1339T942 1266T975 1197T1001 1141L950 1110Z"  />
<glyph unicode="&#x2C7;" horiz-adv-x="1024" d="M1014 1516Q811 1263 719 1163Q693 1133 666 1123T596 1112Q531 1112 509 1138T370 1410L319 1516L371 1546L621 1282L965 1546L1014 1516Z"  />
<glyph unicode="&#x2C9;" horiz-adv-x="1024" d="M317 1272L348 1417H1065L1034 1272H317Z"  />
<glyph unicode="&#x2D8;" horiz-adv-x="1024" d="M1022 1513Q901 1130 633 1130Q377 1130 377 1468L379 1513L442 1528Q454 1433 478 1386T545 1316T659 1292Q729 1292 780 1315T872 1384T958 1528L1022 1513Z"  />
<glyph unicode="&#x2D9;" horiz-adv-x="1024" d="M840 1368Q840 1305 799 1260T692 1214Q630 1214 588 1257T545 1364Q545 1429 588 1472T692 1516Q756 1516 798 1474T840 1368Z"  />
<glyph unicode="&#x2DA;" horiz-adv-x="1098" d="M940 1374Q940 1261 852 1185T627 1108Q517 1108 454 1159T391 1296Q391 1413 482 1488T705 1563Q811 1563 875 1512T940 1374ZM801 1374Q801 1428 774 1462T692 1497Q620 1497 575 1439T530 1296Q530 1242 557 1208T641 1174Q711 1174 756 1230T801 1374Z"  />
<glyph unicode="&#x2DB;" horiz-adv-x="1024" d="M655 -444Q455 -444 372 -406T289 -285Q289 -111 592 39H666Q479 -111 479 -254Q479 -308 522 -336T670 -369L655 -444Z"  />
<glyph unicode="&#x2DC;" horiz-adv-x="1024" d="M1102 1475Q1078 1406 1031 1343T926 1243T807 1206Q747 1206 703 1222T620 1257T546 1293T467 1309Q442 1309 424 1298T388 1267T324 1171L260 1198Q312 1318 391 1393T551 1468Q604 1468 648 1452T730 1416T802 1380T872 1364Q910 1364 936 1375T983 1410T1038 1501L1102 1475Z"  />
<glyph unicode="&#x2DD;" horiz-adv-x="1024" d="M1112 1470Q1112 1426 1072 1388T889 1253Q792 1188 678 1102L647 1133Q737 1246 836 1388Q901 1482 938 1512T1030 1542Q1063 1542 1087 1521T1112 1470ZM723 1470Q723 1427 689 1392T507 1253Q416 1189 301 1102L266 1133Q375 1270 453 1387Q505 1466 529 1492T580 1530T643 1542Q677 1542 700 1521T723 1470Z"  />
<glyph unicode="&#x300;" horiz-adv-x="1024" d="M838 1495L683 1568Q467 1664 439 1682T399 1718T387 1763Q387 1807 419 1836T502 1866Q544 1866 578 1844T649 1780L789 1624L874 1536L838 1495Z"  />
<glyph unicode="&#x301;" horiz-adv-x="1024" d="M860 1782Q860 1738 833 1711T760 1663L604 1598L365 1495L334 1536L494 1683L610 1800Q673 1868 745 1868Q795 1868 827 1844T860 1782Z"  />
<glyph unicode="&#x302;" horiz-adv-x="1024" d="M958 1526L915 1495L643 1702L291 1495L252 1526L561 1831Q605 1868 668 1868Q701 1868 725 1858T770 1819L958 1526Z"  />
<glyph unicode="&#x306;" horiz-adv-x="1024" d="M995 1851Q882 1530 600 1530Q470 1530 402 1605T334 1817V1851L399 1868Q411 1776 465 1733T631 1690Q733 1690 805 1730T934 1868L995 1851Z"  />
<glyph unicode="&#x308;" horiz-adv-x="1024" d="M1004 1716Q1004 1656 963 1614T866 1571Q809 1571 769 1614T729 1716Q729 1775 769 1817T866 1860Q923 1860 963 1818T1004 1716ZM512 1716Q512 1655 471 1613T373 1571Q318 1571 277 1612T236 1716Q236 1777 276 1818T373 1860Q429 1860 470 1818T512 1716Z"  />
<glyph unicode="&#x30B;" horiz-adv-x="1024" d="M766 1495L741 1534L827 1614Q858 1643 958 1746Q1074 1866 1141 1866Q1192 1866 1220 1844T1249 1784Q1249 1736 1217 1707T1063 1630Q969 1594 766 1495ZM815 1782Q815 1708 713 1665Q577 1607 493 1571T332 1495L305 1534L557 1778Q586 1813 632 1839T709 1866Q761 1866 788 1843T815 1782Z"  />
<glyph unicode="&#x30C;" horiz-adv-x="1024" d="M1010 1837L719 1550Q683 1514 660 1506T594 1497Q553 1497 532 1507T492 1546L305 1837L346 1868L618 1663L971 1868L1010 1837Z"  />
<glyph unicode="&#x326;" horiz-adv-x="1024" d="M588 -260H532Q463 -260 437 -239T410 -180Q410 -130 449 -98T553 -66Q619 -66 655 -104T692 -205Q692 -316 608 -380T373 -444L381 -383Q474 -377 522 -351T588 -260Z"  />
<glyph unicode="&#x37E;" horiz-adv-x="768" d="M643 825Q643 758 594 709T475 659Q404 659 356 708T307 825Q307 892 356 941T475 991Q544 991 593 942T643 825ZM502 115Q502 -24 390 -158T98 -373L68 -303Q311 -181 365 0H311Q236 0 197 32T158 125Q158 192 209 243T336 295Q422 295 462 246T502 115Z"  />
<glyph unicode="&#x394;" horiz-adv-x="1446" d="M1307 0H-104L-92 53L883 1440H1018L1319 53L1307 0ZM795 1145L123 180H1001L795 1145Z"  />
<glyph unicode="&#x3A9;" horiz-adv-x="1696" d="M1470 0H827L848 82Q950 191 1035 287T1181 486T1277 708T1311 983Q1311 1169 1233 1267T1008 1366Q895 1366 805 1310T649 1146T546 889T508 600Q508 516 518 449T549 317T647 82L627 0H31L-20 418L49 428Q81 313 126 261T229 209H471L475 238Q418 304 369 361T285 479T229 606T209 760Q209 948 317 1110T610 1363T1020 1454Q1199 1454 1337 1392T1549 1220T1624 973Q1624 836 1577 724T1432 507T1108 238L1104 209H1335Q1393 209 1458 257T1612 422L1673 401L1470 0Z"  />
<glyph unicode="&#x3BC;" horiz-adv-x="1276" d="M403 -23Q286 -23 229 55H221Q205 -17 205 -104L207 -215Q207 -337 169 -390T49 -444Q1 -444 -33 -413T-68 -328Q-68 -277 0 -121Q47 -13 84 139L279 983L524 995L537 981L389 342Q375 284 375 246Q375 180 410 147T510 113Q572 113 635 146T752 238L924 983L1169 995L1182 981L1108 668Q1077 538 1048 408T1015 250T1010 209Q1010 152 1035 131T1120 109Q1147 109 1183 117T1235 133L1217 55Q1135 23 1070 4T948 -16Q852 -16 800 26T739 139H733Q651 57 574 17T403 -23Z"  />
<glyph unicode="&#x3C0;" horiz-adv-x="1294" d="M242 195Q325 295 399 484T494 842H426Q255 842 182 635H115Q126 737 171 819T284 942T438 983H1366L1333 842H1098Q1048 619 1001 415T958 203Q958 147 981 126T1067 104Q1111 104 1186 129L1165 51Q1085 19 1020 0T899 -20Q795 -20 746 29T696 158Q696 214 723 328L842 842H604L584 748Q523 503 444 331T274 71T92 -18Q33 -18 -2 20T-37 117Q-37 177 -1 217T96 258Q156 258 242 195Z"  />
<glyph unicode="&#x2013;" horiz-adv-x="1378" d="M100 496Q104 510 133 637H1305L1272 496H100Z"  />
<glyph unicode="&#x2014;" horiz-adv-x="1827" d="M100 496Q104 510 133 637H1755L1722 496H100Z"  />
<glyph unicode="&#x2018;" horiz-adv-x="475" d="M606 1458Q505 1410 456 1373T373 1290T322 1186H371Q439 1186 477 1156T516 1071Q516 1005 463 954T338 903Q258 903 221 947T184 1063Q184 1197 287 1320T578 1526L606 1458Z"  />
<glyph unicode="&#x2019;" horiz-adv-x="475" d="M598 1370Q598 1233 492 1109T205 907L176 975Q316 1042 377 1105T463 1249H414Q345 1249 306 1278T266 1362Q266 1428 319 1479T444 1530Q516 1530 557 1490T598 1370Z"  />
<glyph unicode="&#x201A;" horiz-adv-x="475" d="M333 124Q333 -13 227 -137T-60 -339L-89 -271Q51 -204 112 -141T198 3H149Q80 3 41 32T1 116Q1 182 54 233T179 284Q251 284 292 244T333 124Z"  />
<glyph unicode="&#x201C;" horiz-adv-x="926" d="M1049 1458Q912 1393 850 1330T762 1186H811Q879 1186 917 1157T956 1071Q956 1004 903 954T780 903Q699 903 662 947T625 1063Q625 1200 730 1322T1020 1526L1049 1458ZM616 1458Q516 1410 467 1373T383 1291T330 1186H379Q447 1186 486 1156T526 1071Q526 1006 474 955T348 903Q274 903 235 944T195 1063Q195 1200 299 1322T588 1526L616 1458Z"  />
<glyph unicode="&#x201D;" horiz-adv-x="926" d="M1040 1370Q1040 1231 934 1108T647 907L618 975Q719 1024 768 1061T852 1145T903 1249H854Q785 1249 747 1278T709 1362Q709 1427 761 1478T887 1530Q959 1530 999 1489T1040 1370ZM608 1370Q608 1233 502 1109T215 907L186 975Q326 1042 387 1105T473 1249H424Q355 1249 317 1278T279 1362Q279 1428 331 1479T455 1530Q527 1530 567 1490T608 1370Z"  />
<glyph unicode="&#x201E;" horiz-adv-x="926" d="M769 124Q769 -15 663 -138T376 -339L347 -271Q448 -222 497 -185T581 -101T632 3H583Q514 3 476 32T438 116Q438 181 490 232T616 284Q688 284 728 243T769 124ZM337 124Q337 -13 231 -137T-56 -339L-85 -271Q55 -204 116 -141T202 3H153Q84 3 46 32T8 116Q8 182 60 233T184 284Q256 284 296 244T337 124Z"  />
<glyph unicode="&#x2020;" horiz-adv-x="977" d="M909 981Q894 981 868 987Q701 1026 639 1032L564 561L518 287Q500 211 432 211Q403 211 380 228T356 281Q356 308 392 428T490 745L575 1030Q499 1023 398 1000Q313 981 297 981Q265 981 244 1001T223 1053Q223 1099 251 1119T317 1139Q335 1139 412 1118Q500 1094 586 1083Q600 1186 601 1257T608 1371T632 1434T696 1454Q730 1454 752 1436T774 1389Q774 1365 734 1279Q674 1152 651 1085Q747 1096 891 1133Q916 1139 930 1139Q958 1139 976 1125T995 1079Q995 1031 969 1006T909 981Z"  />
<glyph unicode="&#x2021;" horiz-adv-x="977" d="M897 594Q897 554 872 531T807 508Q790 508 710 529Q618 552 535 561Q521 469 520 400T513 284T490 214T426 190Q392 190 369 208T346 258Q346 280 386 365Q438 478 467 561Q388 552 291 529Q205 508 190 508Q164 508 151 531T137 582Q137 616 157 641T211 666Q225 666 250 660Q402 623 481 614Q486 646 488 708Q489 755 491 776T502 843T537 935Q564 994 575 1030Q499 1023 398 1000Q313 981 297 981Q265 981 244 1001T223 1053Q223 1096 249 1117T313 1139Q328 1139 405 1118Q493 1094 586 1083Q599 1171 600 1240T606 1357T629 1429T694 1454Q728 1454 751 1436T774 1389Q774 1366 735 1282Q679 1162 651 1085Q750 1096 884 1133Q908 1139 922 1139Q949 1139 966 1120T983 1069Q983 1033 961 1007T909 981Q894 981 869 987Q707 1025 639 1032Q634 1000 634 935Q634 878 625 840Q606 765 580 706Q555 651 545 614Q624 623 722 647Q803 666 823 666Q855 666 876 646T897 594Z"  />
<glyph unicode="&#x2022;" horiz-adv-x="850" d="M721 602Q721 483 636 398T430 313Q306 313 222 398T137 602Q137 722 221 808T430 895Q553 895 637 809T721 602Z"  />
<glyph unicode="&#x2026;" horiz-adv-x="1790" d="M1640 133Q1640 68 1593 22T1479 -25Q1413 -25 1365 21T1317 133Q1317 197 1364 245T1479 293Q1546 293 1593 245T1640 133ZM1042 133Q1042 66 996 21T883 -25Q817 -25 769 20T721 133Q721 199 769 246T883 293Q948 293 995 246T1042 133ZM446 133Q446 68 399 22T285 -25Q219 -25 171 21T123 133Q123 197 170 245T285 293Q352 293 399 245T446 133Z"  />
<glyph unicode="&#x2030;" horiz-adv-x="2605" d="M934 1157Q934 1036 876 933T716 772T496 713Q354 713 270 792T186 1008Q186 1127 244 1231T404 1395T625 1456Q766 1456 850 1375T934 1157ZM254 0H104L1559 1425H1710L254 0ZM2490 412Q2490 290 2433 188T2273 26T2052 -33Q1908 -33 1826 48T1743 264Q1743 384 1801 488T1961 651T2181 711Q2325 711 2407 629T2490 412ZM1624 412Q1624 290 1567 187T1408 25T1188 -33Q1042 -33 960 48T877 264Q877 384 935 487T1096 651T1317 711Q1459 711 1541 630T1624 412ZM725 1206Q725 1386 612 1386Q517 1386 457 1263T397 956Q397 878 423 829T510 780Q602 780 663 903T725 1206ZM2279 461Q2279 641 2169 641Q2074 641 2014 518T1954 211Q1954 37 2066 37Q2158 37 2218 159T2279 461ZM1415 461Q1415 542 1389 591T1303 641Q1209 641 1148 520T1087 211Q1087 132 1114 85T1202 37Q1292 37 1353 159T1415 461Z"  />
<glyph unicode="&#x2039;" horiz-adv-x="829" d="M537 109L354 279Q292 336 241 386T178 457T166 506Q166 587 254 649Q393 747 725 967L766 920L395 526L596 145L537 109Z"  />
<glyph unicode="&#x203A;" horiz-adv-x="829" d="M678 567Q678 486 590 424Q248 187 119 106L78 154L449 545L248 928L307 965Q353 928 481 805T643 647T678 567Z"  />
<glyph unicode="&#x2044;" horiz-adv-x="244" d="M-303 0H-449L618 1423H766L-303 0Z"  />
<glyph unicode="&#x2074;" horiz-adv-x="1077" d="M1006 836L973 700H815L764 469H565L618 700H121L154 844L823 1452H989L848 836H1006ZM750 1272L266 836H649L750 1272Z"  />
<glyph unicode="&#x20AC;" horiz-adv-x="1389" d="M1499 1419L1389 907H1305Q1290 1148 1206 1258T967 1368Q822 1368 694 1238T500 901H899L836 795H469Q460 753 451 711T438 631H735L670 524H432Q432 314 520 200T778 86Q921 86 1044 169T1264 401L1337 356Q1223 164 1055 65T676 -35Q422 -35 272 115T119 524H-4L59 631H125Q138 724 160 795H41L106 901H201Q308 1147 517 1300T967 1454Q1079 1454 1182 1428T1350 1358L1415 1419H1499Z"  />
<glyph unicode="&#x2113;" horiz-adv-x="662" d="M608 1255Q608 1102 539 970T322 700V213Q322 78 406 78Q453 78 487 96T559 154L596 98Q474 -27 338 -27Q246 -27 191 34T135 201V539L72 481L0 559L135 678V1237Q135 1377 207 1462T397 1548Q502 1548 555 1470T608 1255ZM498 1241Q498 1339 474 1391T408 1444Q372 1444 347 1405T322 1278V842Q411 933 454 1029T498 1241Z"  />
<glyph unicode="&#x2122;" horiz-adv-x="1933" d="M1647 733V786Q1699 786 1726 797Q1755 814 1755 840V1286H1737L1505 756H1458L1235 1296H1217V934Q1217 880 1223 854T1245 813Q1259 804 1293 796T1343 786V733H1024V784Q1040 786 1073 793T1118 807T1136 828T1146 867T1149 932V1272Q1149 1312 1123 1336T1030 1366V1419H1337L1530 956L1688 1333Q1699 1358 1712 1419H2007V1366Q1944 1360 1925 1351T1905 1313V840Q1905 811 1927 799Q1937 796 1966 791T2007 786V733H1647ZM870 1219Q854 1270 824 1311T770 1356Q742 1360 696 1360H653V844Q653 806 694 796T760 786V733H397V786Q420 786 443 790T479 797Q504 806 504 838V1360H449L387 1356Q360 1351 330 1307T287 1219H240V1419H918V1219H870Z"  />
<glyph unicode="&#x2126;" horiz-adv-x="1696" d="M1464 0H827L848 82Q950 191 1035 287T1183 486T1280 708T1315 983Q1315 1168 1235 1267T1008 1366Q895 1366 805 1310T649 1146T546 889T508 600Q508 516 518 449T549 317T647 82L627 0H23L-20 416L49 426Q110 209 229 209H471L475 238Q418 304 369 361T285 479T229 606T209 760Q209 948 317 1110T610 1363T1020 1454Q1199 1454 1338 1392T1553 1220T1628 973Q1628 837 1581 726T1437 510T1108 238L1104 209H1335Q1393 209 1458 257T1612 422L1673 401L1464 0Z"  />
<glyph unicode="&#x212E;" horiz-adv-x="1294" d="M1237 283Q1151 129 1017 48T725 -33Q537 -33 404 44T201 264T131 602Q131 771 202 913T403 1136T698 1217Q940 1217 1073 1087T1206 711V633H430Q430 340 513 218T788 96Q897 96 984 148T1157 336L1237 283ZM907 731Q907 909 887 983T819 1093T688 1130Q555 1130 494 1034T430 729L907 731Z"  />
<glyph unicode="&#x2202;" horiz-adv-x="1251" d="M1180 881Q1180 699 1130 530T989 229T783 31T537 -35Q338 -35 225 81T111 393Q111 530 175 650T348 841T571 913Q690 913 772 871T905 735Q913 826 913 899Q913 1374 629 1374Q576 1374 518 1348Q541 1269 541 1200Q541 1137 505 1101T397 1065Q334 1065 298 1104T262 1202Q262 1268 314 1327T458 1422T662 1458Q824 1458 940 1386T1118 1183T1180 881ZM874 569Q869 671 814 732T668 793Q592 793 524 731T416 558T375 332Q375 194 420 121T551 47Q621 47 685 108T800 296T874 569Z"  />
<glyph unicode="&#x2206;" horiz-adv-x="1446" d="M-104 0L-92 53L881 1440H1016L1315 53L1303 0H-104ZM791 1145L123 180H997L791 1145Z"  />
<glyph unicode="&#x220F;" horiz-adv-x="1808" d="M1063 -414V-338Q1164 -338 1213 -313T1262 -219V1323H604V-209Q604 -274 656 -306T799 -338V-414H121V-338Q229 -338 275 -310T322 -219V1323H117V1419H1751V1323H1544V-209Q1544 -274 1598 -306T1743 -338V-414H1063Z"  />
<glyph unicode="&#x2211;" horiz-adv-x="1468" d="M1315 -414H49V-344L745 469L63 1346V1419H1290L1333 1001H1257Q1192 1135 1127 1216T1004 1313Q948 1333 809 1333H412L971 621V590L307 -178H1087Q1171 -178 1243 -111T1378 104L1450 82L1315 -414Z"  />
<glyph unicode="&#x2212;" horiz-adv-x="1378" d="M180 496V639H1245V496H180Z"  />
<glyph unicode="&#x2215;" horiz-adv-x="244" d="M-303 0H-449L618 1423H766L-303 0Z"  />
<glyph unicode="&#x2219;" horiz-adv-x="631" d="M498 553Q498 484 450 436T332 387Q261 387 213 435T164 553Q164 622 213 670T332 719Q399 719 448 670T498 553Z"  />
<glyph unicode="&#x221A;" horiz-adv-x="1405" d="M692 -127H596L315 815H121L127 922H512L733 190L1563 1712H1700L692 -127Z"  />
<glyph unicode="&#x221E;" horiz-adv-x="1552" d="M1499 569Q1499 445 1450 340T1316 175T1130 115Q912 115 776 371Q668 117 459 117Q300 117 199 241T98 569Q98 693 146 797T281 963T467 1024Q683 1024 823 766Q876 894 957 958T1139 1022Q1299 1022 1399 899T1499 569ZM1397 567Q1397 678 1331 747T1151 817Q953 817 860 696Q950 478 1019 402T1180 326Q1278 326 1337 392T1397 567ZM737 442Q645 662 577 737T418 813Q321 813 261 748T201 573Q201 459 269 389T449 319Q549 319 622 352T737 442Z"  />
<glyph unicode="&#x222B;" horiz-adv-x="1155" d="M1167 1358Q1167 1304 1131 1270T1042 1235Q965 1235 929 1290T889 1470Q877 1473 864 1473Q725 1473 725 1081V158Q725 -37 677 -167T523 -370T311 -444Q178 -444 104 -395T29 -254Q29 -202 64 -167T154 -131Q228 -131 265 -186T305 -367Q317 -369 330 -369Q471 -369 471 27V946Q471 1145 518 1274T673 1475T883 1548Q1017 1548 1092 1499T1167 1358Z"  />
<glyph unicode="&#x2248;" horiz-adv-x="1378" d="M1243 928Q1217 853 1163 784T1042 674T899 633Q825 633 767 653T659 697T562 742T463 762Q403 762 361 728T268 592L180 629Q206 705 264 777T390 884T524 920Q599 920 657 900T766 854T863 809T963 788Q1003 788 1033 803T1089 851T1157 965L1243 928ZM1243 526Q1217 451 1163 382T1041 272T899 231Q825 231 767 251T659 295T562 340T463 360Q400 360 359 325T268 190L180 227Q205 302 258 369T381 477T524 518Q599 518 657 498T766 453T863 408T963 387Q1004 387 1034 403T1089 450T1157 563L1243 526Z"  />
<glyph unicode="&#x2260;" horiz-adv-x="1378" d="M705 299L616 0H473L561 299H193V442H604L679 693H193V836H721L811 1139H952L862 836H1233V693H820L745 442H1233V299H705Z"  />
<glyph unicode="&#x2264;" horiz-adv-x="1378" d="M219 643V772L1210 1178V1014L428 707L1210 399V238L219 643ZM219 0V143H1210V0H219Z"  />
<glyph unicode="&#x2265;" horiz-adv-x="1378" d="M215 238V399L997 707L215 1014V1178L1206 772V643L215 238ZM215 0V143H1206V0H215Z"  />
<glyph unicode="&#x25CA;" horiz-adv-x="1311" d="M678 -20L115 612L678 1249L1241 612L678 -20ZM678 1042L301 612L678 186L1055 612L678 1042Z"  />
<glyph unicode="&#xFB01;" horiz-adv-x="1315" d="M920 821Q920 854 895 877H557Q445 323 383 59Q351 -76 266 -191T63 -373T-172 -440Q-280 -440 -338 -401T-397 -289Q-397 -233 -362 -197T-270 -160Q-172 -160 -102 -299L-70 -362Q45 -311 117 23L297 877H102Q114 918 125 973H319Q358 1220 547 1384T969 1548Q1112 1548 1191 1501T1270 1368Q1270 1336 1252 1303T1202 1250T1130 1229Q1051 1229 1008 1282T948 1462Q816 1462 727 1359T596 1065L578 973H954L1208 995L1221 981L1071 348Q1051 266 1047 203Q1047 146 1072 125T1157 104Q1208 104 1274 127L1255 51Q1086 -20 987 -20Q892 -20 837 26T782 158Q782 191 793 246L915 776Q920 804 920 821Z"  />
<glyph unicode="&#xFB02;" horiz-adv-x="1354" d="M948 1466Q815 1466 725 1358T592 1051L575 973H829L805 877H557Q445 323 383 59Q351 -79 266 -195T65 -378T-168 -444Q-279 -444 -338 -404T-397 -289Q-397 -233 -362 -197T-270 -160Q-172 -160 -102 -299L-70 -362Q45 -311 117 23L297 877H102Q114 918 125 973H317L326 1004Q363 1179 465 1304T702 1488T975 1548Q1132 1548 1237 1507L1362 1548L1372 1532L1098 346Q1073 251 1073 201Q1073 144 1100 123T1190 102Q1217 102 1255 110T1313 125L1294 49Q1122 -23 1018 -23Q919 -23 864 26T809 158L813 196L819 242L838 334L1061 1298Q1069 1320 1069 1354Q1069 1401 1036 1433T948 1466Z"  />

</font>
</defs>
</svg>
